Таймер / TiMER (Жаклин Шеффер / Jacqueline Schaeffer) [2009, США, фантастика, фэнтези, драма, мелодрама, комедия, BDRip-AVC] MVO (R5) + Original (Eng) + Subs (Rus)

 
Автор Сообщение

TorrentFilm ®

Пол:

Стаж: 1 год 11 месяцев

Сообщений: 7741



Награды: Нет

Торрент-статистика

Создавать темы 31-Янв-2015 00:01

[Цитировать]

Таймер / TiMER«Любовь с гарантией»- Страна: США
Жанр: фантастика, фэнтези, драма, мелодрама, комедия
Год выпуска: 2009
Продолжительность: 01:39:48-Перевод: Профессиональный (многоголосый закадровый) - R5
Оригинальная аудиодорожка: English
Cубтитры: Русские (полные)
Навигация по главам: присутствует - 20 глав-Режиссер: Жаклин Шеффер / Jacqueline Schaeffer
В ролях: Эмма Колфилд, Джон Патрик Амедори, Скотт Холройд, Кали Роча, Кэтерин Фон Тилль, Хо-Кван Тсе, Луиза Клэпс, Джейсон Бергер, Габриэль Деннис, Маркус Рэй-Описание: «Таймер — это высокотехнологичное устройство, которое имплантируется в запястье и начинает отсчет времени, когда раздастся сигнал — оглянитесь, Ваш идеальный партнер перед Вами. Гарантия 100%». Такую рекламу нового прибора услышала одинокая Уна О`Лири и поспешила воспользоваться заманчивым предложением. Но девушке не повезло — имплантированный ей Таймер не работает, «пока не работает» — уверяют производители. Однажды Уна знакомится с симпатичным продавцом Майком и у них возникают взаимные чувства. Девушка счастлива: вот он — единственный и неповторимый. Но почему же молчит Таймер?-
Download sample-Качество видео: BDRip-AVC | исх. Blu-ray Disc [GER Transfer] - thx:
Формат: MKV-Видео: 1 106x598 (1.85:1), 24.000 fps, H.264 ~4368 kbps avg, 0.269 bit/pixel
Аудио №1: 48 kHz, AC3 Dolby Digital, 3/2 (L,C,R,l,r) + LFE ch, ~448 kbps | Профессиональный (многоголосый закадровый) - R5
Аудио №2: 48 kHz, AC3 Dolby Digital, 3/2 (L,C,R,l,r) + LFE ch, ~448 kbps | English-

MediaInfo

General
Unique ID : 244679998727949418916320218212905881714 (0xB813A754937B3B8D874A88853EED9072)
Complete name : D:\Фильмы\Рипы\TiMER.2009.BDRip-AVC.eFK tRuAVC.mkv
Format : Matroska
Format version : Version 4 / Version 2
File size : 3.67 GiB
Duration : 1h 39mn
Overall bit rate : 5 266 Kbps
Movie name : Таймер / TiMER (2009) - Release for rutracker
Encoded date : UTC 2015-01-29 11:49:42
Writing application : mkvmerge v7.2.0 ('On Every Street') 64bit built on Sep 13 2014 15:52:10
Writing library : libebml v1.3.0 + libmatroska v1.4.1
DURATION : 01:35:33.984000000
NUMBER_OF_FRAMES : 1313
NUMBER_OF_BYTES : 68758
_STATISTICS_WRITING_APP : mkvmerge v7.2.0 ('On Every Street') 64bit built on Sep 13 2014 15:52:10
_STATISTICS_WRITING_DATE_UTC : 2015-01-29 11:49:42
_STATISTICS_TAGS : BPS DURATION NUMBER_OF_FRAMES NUMBER_OF_BYTES
Attachment : Yes
Video
ID : 1
Format : AVC
Format/Info : Advanced Video Codec
Format profile : High@L4.1
Format settings, CABAC : Yes
Format settings, ReFrames : 11 frames
Codec ID : V_MPEG4/ISO/AVC
Duration : 1h 39mn
Bit rate : 4 265 Kbps
Width : 1 106 pixels
Height : 598 pixels
Display aspect ratio : 1.85:1
Frame rate mode : Constant
Frame rate : 24.000 fps
Color space : YUV
Chroma subsampling : 4:2:0
Bit depth : 8 bits
Scan type : Progressive
Bits/(Pixel*Frame) : 0.269
Stream size : 2.97 GiB (81%)
Title : eFK tRuAVC
Writing library : x264 core 144 r2525kMod 40bb568
Encoding settings : cabac=1 / ref=11 / deblock=1:-3:-3 / analyse=0x3:0x133 / me=umh / subme=11 / psy=1 / fade_compensate=0.00 / psy_rd=1.10:0.10 / mixed_ref=1 / me_range=48 / chroma_me=1 / trellis=2 / 8x8dct=1 / cqm=0 / deadzone=21,11 / fast_pskip=0 / chroma_qp_offset=-3 / threads=12 / lookahead_threads=3 / sliced_threads=0 / nr=0 / decimate=1 / interlaced=0 / bluray_compat=0 / constrained_intra=0 / fgo=0 / bframes=16 / b_pyramid=2 / b_adapt=2 / b_bias=0 / direct=3 / weightb=1 / open_gop=0 / weightp=2 / keyint=250 / keyint_min=24 / scenecut=40 / intra_refresh=0 / rc_lookahead=60 / rc=crf / mbtree=0 / crf=21.9500 / qcomp=0.75 / qpmin=0 / qpmax=69 / qpstep=4 / vbv_maxrate=50000 / vbv_bufsize=62500 / crf_max=0.0 / nal_hrd=none / filler=0 / ip_ratio=1.25 / pb_ratio=1.15 / aq=3:0.90
Language : English
Default : Yes
Forced : No
Color primaries : BT.709
Transfer characteristics : BT.709
Matrix coefficients : BT.709
DURATION : 01:39:48.417000000
NUMBER_OF_FRAMES : 143722
NUMBER_OF_BYTES : 3269414289
_STATISTICS_WRITING_APP : mkvmerge v7.2.0 ('On Every Street') 64bit built on Sep 13 2014 15:52:10
_STATISTICS_WRITING_DATE_UTC : 2015-01-29 11:49:42
_STATISTICS_TAGS : BPS DURATION NUMBER_OF_FRAMES NUMBER_OF_BYTES
Audio #1
ID : 2
Format : AC-3
Format/Info : Audio Coding 3
Mode extension : CM (complete main)
Format settings, Endianness : Big
Codec ID : A_AC3
Duration : 1h 39mn
Bit rate mode : Constant
Bit rate : 448 Kbps
Channel count : 6 channels
Channel positions : Front: L C R, Side: L R, LFE
Sampling rate : 48.0 KHz
Bit depth : 16 bits
Compression mode : Lossy
Stream size : 320 MiB (9%)
Title : MVO (R5)
Language : Russian
Default : Yes
Forced : No
Audio #2
ID : 3
Format : AC-3
Format/Info : Audio Coding 3
Mode extension : CM (complete main)
Format settings, Endianness : Big
Codec ID : A_AC3
Duration : 1h 39mn
Bit rate mode : Constant
Bit rate : 448 Kbps
Channel count : 6 channels
Channel positions : Front: L C R, Side: L R, LFE
Sampling rate : 48.0 KHz
Bit depth : 16 bits
Compression mode : Lossy
Stream size : 320 MiB (9%)
Language : English
Default : No
Forced : No
Text
ID : 4
Format : UTF-8
Codec ID : S_TEXT/UTF8
Codec ID/Info : UTF-8 Plain Text
Title : full
Language : Russian
Default : No
Forced : No
Menu
00:00:00.000 : :Chapter 01
00:07:13.500 : :Chapter 02
00:10:11.500 : :Chapter 03
00:13:50.000 : :Chapter 04
00:19:26.875 : :Chapter 05
00:23:22.500 : :Chapter 06
00:27:44.708 : :Chapter 07
00:32:54.500 : :Chapter 08
00:36:17.583 : :Chapter 09
00:42:26.916 : :Chapter 10
00:48:04.875 : :Chapter 11
00:53:50.958 : :Chapter 12
00:57:58.916 : :Chapter 13
01:02:48.750 : :Chapter 14
01:09:12.208 : :Chapter 15
01:12:51.583 : :Chapter 16
01:18:19.375 : :Chapter 17
01:24:50.083 : :Chapter 18
01:28:43.041 : :Chapter 19
01:33:46.583 : :Chapter 20

x264 log

x264 [info]: frame I:947 Avg QP:20.02 size: 67249
x264 [info]: frame P:23072 Avg QP:21.23 size: 32168
x264 [info]: frame B:119703 Avg QP:22.08 size: 20581
x264 [info]: consecutive B-frames: 0.8% 0.7% 2.9% 7.0% 8.0% 45.7% 7.3% 2.0% 6.9% 1.7% 5.9% 4.2% 3.8% 1.0% 1.2% 0.1% 0.8%
x264 [info]: mb I I16..4: 5.7% 84.8% 9.4%
x264 [info]: mb P I16..4: 0.7% 14.5% 0.9% P16..4: 30.1% 33.9% 10.4% 0.7% 0.0% skip: 8.7%
x264 [info]: mb B I16..4: 0.1% 3.1% 0.1% B16..8: 41.4% 20.6% 4.1% direct: 8.4% skip:22.2% L0:47.6% L1:45.6% BI: 6.8%
x264 [info]: 8x8 transform intra:90.9% inter:62.1%
x264 [info]: direct mvs spatial:99.9% temporal:0.1%
x264 [info]: coded y,uvDC,uvAC intra: 91.5% 77.1% 39.1% inter: 43.6% 31.6% 1.2%
x264 [info]: i16 v,h,dc,p: 39% 21% 7% 33%
x264 [info]: i8 v,h,dc,ddl,ddr,vr,hd,vl,hu: 9% 6% 12% 11% 14% 13% 12% 11% 12%
x264 [info]: i4 v,h,dc,ddl,ddr,vr,hd,vl,hu: 14% 17% 8% 7% 12% 13% 11% 9% 11%
x264 [info]: i8c dc,h,v,p: 36% 28% 20% 16%
x264 [info]: Weighted P-Frames: Y:3.0% UV:1.0%
x264 [info]: ref P L0: 37.3% 9.7% 19.0% 8.0% 6.5% 5.3% 4.7% 2.7% 2.4% 2.2% 2.0% 0.1% 0.0%
x264 [info]: ref B L0: 56.0% 15.7% 9.6% 5.2% 4.0% 3.4% 2.9% 1.8% 0.9% 0.3%
x264 [info]: ref B L1: 86.3% 13.7%
x264 [info]: kb/s:4367.65
x264 [total]: encoded 143722 frames, 5.54 fps, 4367.65 kb/s, duration 7:12:43.93

Comparison

Source

Encode
[Профиль] [ЛС]

Создавать темы 06-Авг-2015 22:47 (спустя 6 месяцев 6 дней)

Топик был перенесен из форума Фильмы до 2014 года в форум Фильмы до 2012 года
sergej644
 

Создавать темы 12-Июн-2016 08:48 (спустя 1 год 4 месяца)

Топик был перенесен из форума Фильмы 2011 года в форум Фильмы 2009 года
Russian Mafia
 
Кто просматривает тему:

Форум Тема Автор Размер
Программы [Система] Таймер и Секундомер [Android 2.0+, Multi] TorrentFilm 437 KB
Показать сообщения:    

Текущее время: Сегодня 09:58

Часовой пояс: GMT



Вы не можете начинать темы
Вы не можете отвечать на сообщения
Вы не можете редактировать свои сообщения
Вы не можете удалять свои сообщения
Вы не можете голосовать в опросах
Вы не можете прикреплять файлы к сообщениям
Вы не можете скачивать файлы