Таинственный остров (1941) DVDRip от New-Team

 
Автор Сообщение

sergej644 ®

Пол:

Стаж: 4 года 11 месяцев

Сообщений: 6038

Откуда: Soviet Union



Награды: Нет

Торрент-статистика

Создавать темы 11-Дек-2014 13:53

[Цитировать]

Страна: СССР
Производство: Студия Горького, Одесская киностудия
Жанр: фантастика, приключения, семейный
Год выпуска: 1941
Продолжительность: 01:28:17
Перевод: Не требуется
Cубтитры: нет
Оригинальная аудиодорожка: русский
Режиссер: Эдуард Пенцлин
В ролях:
Алексей Краснопольский, Павел Киянский, Андрей Сова, И.Козлов, А.Андриенко-Земсков, Юра Грамматикати, Роберт Росс, Николай Комиссаров...
Описание:
Во время Гражданской войны в Америке пятеро пленных бегут из осажденного Ричмонда на воздушном шаре. Ураган уносит их на необитаемый остров. Тысячи миль отделяют колонистов от обитаемой земли, а все их имущество — нож, часы и записная книжка…- -Источник: DVD5 R5
Качество видео: DVDRip
Формат видео: AVI
Виде: 720x544 (4:3), 25 fps, XviD ~ 2225 kbps avg, 0.227 bit/pixel
Аудио: 48 kHz, Dolby Digital AC3 2.0, 128 kbps
Раздача от:

MediaInfo

Общее
Полное имя : Tainstvennii.ostrov.1941.DVDRip_[New-team]_by_AVP_Studio.avi
Формат : AVI
Формат/Информация : Audio Video Interleave
Размер файла : 1,46 Гбайт
Продолжительность : 1 ч. 28 м.
Общий поток : 2363 Кбит/сек
Программа кодирования : VirtualDubModRus 1.5.10.2 (build 2542/release)
Библиотека кодирования : VirtualDubMod build 2542/release
Видео
Идентификатор : 0
Формат : MPEG-4 Visual
Профиль формата : Advanced Simple@L5
Параметр BVOP формата : 1
Параметр QPel формата : Нет
Параметр GMC формата : Без точки перехода
Параметр матрицы формата : Выборочная
Идентификатор кодека : XVID
Идентификатор кодека/Подсказка : XviD
Продолжительность : 1 ч. 28 м.
Битрейт : 2225 Кбит/сек
Ширина : 720 пикселей
Высота : 544 пикселя
Соотношение сторон : 4:3
Частота кадров : 25,000 кадров/сек
Цветовое пространство : YUV
Субдискретизация насыщенности : 4:2:0
Битовая глубина : 8 бит
Тип развёртки : Прогрессивная
Метод сжатия : С потерями
Бит/(Пиксели*Кадры) : 0.227
Размер потока : 1,37 Гбайт (94%)
Библиотека кодирования : XviD 73
Аудио
Идентификатор : 1
Формат : AC-3
Формат/Информация : Audio Coding 3
Расширение режима : CM (complete main)
Параметр Endianness формата : Big
Идентификатор кодека : 2000
Продолжительность : 1 ч. 28 м.
Вид битрейта : Постоянный
Битрейт : 128 Кбит/сек
Каналы : 2 канала
Расположение каналов : Front: L R
Частота : 48,0 КГц
Битовая глубина : 16 бит
Метод сжатия : С потерями
Размер потока : 80,8 Мбайт (5%)
Выравнивание : Разделение по промежуткам
Продолжительность промежутка : 40 мс. (1,00 видеокадр)
Время предзагрузки промежутка : 500 мс

Скриншоты

[Профиль] [ЛС]
Кто просматривает тему:

Форум Тема Автор Размер
BBC BBC: Таинственный мир гормонов / The Fantastical World of Hormones with Professor John Wass (Джеймс Сенди / James Sandy) [2014 г., Документальный, научно-познавательный, исследование, HDTVRip 720p] skorpionN 1.75 GB
Боевики, детективы, триллеры Анна Князева - Серия книг Детектив с таинственной историей [2013-2015, FB2,RTF, RUS] Swager 43 MB
Ужасы и мистика Марк Твен - Таинственный незнакомец (2016) MP3 Swager 278 MB
Зарубежные мультфильмы Медведи Буни: Таинственная зима / Xiong Chumo Zhi Xueling Xiongfeng (2015) WEB-DLRip | iTunes BOSS 1.46 GB
Разная литература Михаил Герштейн, Вадим Деружинский - Нежить, или Таинственные существа (2015) FB2, RTF достали все 13 MB
Зарубежные Путешествие 2: Таинственный остров в 3Д / Journey 2: The Mysterious Island 3D (Брэд Пейтон / Brad Peyton) [2012, фантастика, фэнтези, боевик, комедия, приключения, семейный, Blu-ray Remux 1080p] BD3D TorrentFilm 27.42 GB
Документальные HD Таинственная жизнь собак / Secret Life of Dogs (Барни Ревилл / Barny Revill) [2013, документальный, HDTVRip 720p] TorrentFilm 1.16 GB
Фильмы 2011 года Таинственная река / Mystic River (2003) BDRip 720p от Leonardo and Scarabey sergej644 2.91 GB
Показать сообщения:    

Текущее время: Сегодня 12:27

Часовой пояс: GMT



Вы не можете начинать темы
Вы не можете отвечать на сообщения
Вы не можете редактировать свои сообщения
Вы не можете удалять свои сообщения
Вы не можете голосовать в опросах
Вы не можете прикреплять файлы к сообщениям
Вы не можете скачивать файлы