Таинственный лес / The Village (2004) WEB-DL 1080p | D, P, P2, A

 
Автор Сообщение

BOSS ®

Пол:

Стаж: 3 года 11 месяцев

Сообщений: 11851

Откуда: ODESSA



Награды: 22 (Подробнее)

Top Keeper 2 (Количество: 1) Top Releaser 5 (Количество: 1) Mega Seeder 2 (Количество: 1)
Торрент-статистика

Создавать темы 09-Июн-2018 16:16

[Цитировать]

Информация о фильме
Название: Таинственный лес
Оригинальное название: The Village
Год выхода: 2004
Жанр: триллер, мелодрама
Режиссер: М. Найт Шьямалан
В ролях: Брайс Даллас Ховард, Хоакин Феникс, Эдриан Броуди, Уильям Хёрт, Сигурни Уивер, Брендан Глисон, Черри Джонс, Селия Уэстон, Джон Кристофер Джонс, Фрэнк Коллисон
О фильме: Пенсильвания. Жители деревни Ковингтон верят, что в местном лесу обитают мифические существа, и никогда не входят в лес и не покидают своей деревни.
Но однажды любознательный и своевольный Люций Хант, уставший жить в полной изоляции от внешнего мира, решает нарушить табу и выходит за пределы деревни…

Страна: США
Студия: Blinding Edge Pictures, Scott Rudin Productions, Touchstone Pictures
Продолжительность: 01:47:47
Перевод: Профессиональный (дублированный) Невафильм + Профессиональный (многоголосый, закадровый) ? + Профессиональный (многоголосый, закадровый) Trance MG + Профессиональный (двухголосый, закадровый) Tycoon-Studio + Авторский (одноголосый, закадровый) Е.Рудой + Профессиональный (многоголосый, закадровый) ICTV
Файл
Качество: WEB-DL 1080p
Формат: Matroska
Видео: 1920x1040 at 23.976 fps, x264@L4, ~9000 kbps avg
Аудио#1: Russian: 48 kHz, AC3 Dolby Digital, 3/2 (L,C,R,l,r) + LFE ch, ~384 kbps avg |Дубляж, Невафильм|
Аудио#2: Russian: 48 kHz, AC3 Dolby Digital, 2/0 (L,R) ch, ~192 kbps avg |Многоголосый закадровый, ?|
Аудио#3: Russian: 48 kHz, AC3 Dolby Digital, 3/2 (L,C,R,l,r) + LFE ch, ~448 kbps avg |Многоголосый закадровый, Trance MG|
Аудио#4: Russian: 48 kHz, AC3 Dolby Digital, 3/2 (L,C,R,l,r) + LFE ch, ~448 kbps avg |Двухголосый закадровый, Tycoon-Studio|
Аудио#5: Russian: 48 kHz, AC3 Dolby Digital, 3/2 (L,C,R,l,r) + LFE ch, ~448 kbps avg |Авторский, Е.Рудой|
Аудио#6: Ukrainian: 48 kHz, AC3 Dolby Digital, 2/0 (L,R) ch, ~192 kbps avg |Многоголосый закадровый, ICTV|
Аудио#7: English: 48 kHz, AC3 Dolby Digital, 3/2 (L,C,R,l,r) + LFE ch, ~640 kbps avg
Субтитры: Russian, English
***Релиз: whalekilla.

Знаете ли вы, что...

В качестве замены Кирстен Данст в актерском составе появилась Брайс Даллас Ховард. Кирстен же предпочла поработать над картиной «Элизабеттаун» (Elizabethtown).
Из-за разногласий в расписании съемок актер Эштон Кутчер уступил свою роль Эдриану Броуди.
По признанию актрисы Сигурни Уивер эта картина станет одной из самых страшных в истории кинематографа. После прочтения сценария актрису в течение двух недель мучили жуткие кошмары.
Сценарий фильма был написан под влиянием двух абсолютно непохожих друг на друга сюжетов: театральная пьеса Wuthering Heights и оригинальный «Кинг Конг» 1933 года выпуска. Единственное, что объединяет эти два сюжета, — группы людей, живущие по соседству с агрессивными существами.
Актриса Брайс Даллас Ховард была утверждена без традиционных в таких случаях кинопроб. М. Найт Шьямалан остался доволен увиденным на театральных подмостках и незамедлительно пригласил актрису в свой проект.
Изначально картина носила рабочее название «Леса» (The Woods), однако, как выяснилось чуть позднее, другая студия уже застолбила право использовать данное название для своего проекта.
Роль Люциуса Ханта изначально писалась под Хоакина Феникса, с которым у Шьямалана установились теплые дружеские отношения еще со съемок «Знаков».
Несмотря на то, что в многочисленных зрительских отзывах не упоминается точное время событий (в основном упоминается лишь 19-ый век), в самом начале картины на одном из надгробных камней мы можем увидеть цифру 1897.
Съемки продолжались около двух месяцев, а общий бюджет фильма составил 60 миллионов долларов.
Режиссер фильма М. Найт Шьямалан, как и в прошлых своих фильмах, появится на экране на несколько секунд в небольшом камео, в конце фильма.
Чтобы лучше понять своих персонажей, все актёры фильма неделю жили в учебном лагере в атмосфере 19 века.
Первоначально комиссия по рейтингам хотела присвоить фильму рейтинг «R». Причиной служил один-единственный звуковой эффект. Однако этого не произошло в связи с тем, что эффект так и не был использован в фильме.
В финале в титрах появляется надпись: «Те, чьё имя не называем — Джой Ания и Кевин Фостер» (Those We Don`t Speak Of — Joey Anaya and Kevin Foster).
Режиссер первоначально решил сделать дизайн «Тех, чьё имя не называем», в виде монстра, похожего на прямоходящего льва с большой косматой головой, но после просмотра созданного образа, решил, что это совершенно невероятно и не согласуется с концепцией картины.
Деревню Ковингтон в лесной долине для съемок фильма команда рабочих «с нуля» полностью выстроила за 11 недель.
Съемки картины проходили в Филадельфии и окрестностях в штате Пенсильвания (округ Честер), а также в г. Центрвиль (штат Дэлавер), в г. Педриктаун (штат Нью-Джерси). Начало съемок — 8 октября 2003 года, а закончились они в середине декабря.

MediaInfo

Общее
Уникальный идентификатор : 254693814367981266876381290288207010797 (0xBF9C3E8F4DE5DD91A169408D62529BED)
Полное имя : The.Village.2004.WEB-DL.(1080p).mkv
Формат : Matroska
Версия формата : Version 4 / Version 2
Размер файла : 9,09 Гбайт
Продолжительность : 1 ч. 47 м.
Режим общего битрейта : Переменный
Общий поток : 12,1 Мбит/сек
Название фильма : The Village (2004)
Дата кодирования : UTC 2017-02-02 08:19:34
Программа кодирования : mkvmerge v6.9.1 ('Blue Panther') 64bit built on Apr 18 2014 18:23:38
Библиотека кодирования : libebml v1.3.0 + libmatroska v1.4.1
Видео
Идентификатор : 1
Формат : AVC
Формат/Информация : Advanced Video Codec
Профиль формата : High@L4.0
Параметр CABAC формата : Да
Параметр ReFrames формата : 4 кадра
Идентификатор кодека : V_MPEG4/ISO/AVC
Продолжительность : 1 ч. 47 м.
Вид битрейта : Переменный
Битрейт : 9082 Кбит/сек
Максимальный битрейт : 15,0 Мбит/сек
Ширина : 1920 пикселей
Высота : 1040 пикселей
Соотношение сторон : 1,85:1
Режим частоты кадров : Постоянный
Частота кадров : 23,976 кадра/сек
Цветовое пространство : YUV
Субдискретизация насыщенности : 4:2:0
Битовая глубина : 8 бит
Тип развёртки : Прогрессивная
Бит/(Пиксели*Кадры) : 0.190
Размер потока : 6,84 Гбайт (75%)
Заголовок : The Village (2004)
Библиотека кодирования : x264 core 148 r2623 d5b2374
Настройки программы : cabac=1 / ref=4 / deblock=1:-1:-1 / analyse=0x3:0x133 / me=umh / subme=9 / psy=1 / psy_rd=1.00:0.15 / mixed_ref=1 / me_range=24 / chroma_me=1 / trellis=2 / 8x8dct=1 / cqm=0 / deadzone=21,11 / fast_pskip=1 / chroma_qp_offset=-3 / threads=32 / lookahead_threads=5 / sliced_threads=0 / nr=150 / decimate=1 / interlaced=0 / bluray_compat=0 / constrained_intra=0 / bframes=8 / b_pyramid=2 / b_adapt=2 / b_bias=0 / direct=3 / weightb=1 / open_gop=0 / weightp=2 / keyint=120 / keyint_min=61 / scenecut=0 / intra_refresh=0 / rc_lookahead=120 / rc=crf / mbtree=1 / crf=18.0 / qcomp=0.60 / qpmin=0 / qpmax=69 / qpstep=4 / vbv_maxrate=15000 / vbv_bufsize=31250 / crf_max=0.0 / nal_hrd=vbr / filler=0 / ip_ratio=1.40 / aq=3:1.00
Язык : English
Default : Да
Forced : Нет
Основные цвета : BT.709
Характеристики трансфера : BT.709
Коэффициенты матрицы : BT.709
Аудио #1
Идентификатор : 2
Формат : AC-3
Формат/Информация : Audio Coding 3
Расширение режима : CM (complete main)
Параметр Endianness формата : Big
Идентификатор кодека : A_AC3
Продолжительность : 1 ч. 47 м.
Вид битрейта : Постоянный
Битрейт : 384 Кбит/сек
Каналы : 6 каналов
Расположение каналов : Front: L C R, Side: L R, LFE
Частота : 48,0 КГц
Битовая глубина : 16 бит
Метод сжатия : С потерями
Размер потока : 296 Мбайт (3%)
Заголовок : AC3, 6 ch, 384 Kbps, Dub, 'Невафильм'
Язык : Russian
Default : Да
Forced : Нет
Аудио #2
Идентификатор : 3
Формат : AC-3
Формат/Информация : Audio Coding 3
Расширение режима : CM (complete main)
Параметр Endianness формата : Big
Идентификатор кодека : A_AC3
Продолжительность : 1 ч. 47 м.
Вид битрейта : Постоянный
Битрейт : 192 Кбит/сек
Каналы : 2 канала
Расположение каналов : Front: L R
Частота : 48,0 КГц
Битовая глубина : 16 бит
Метод сжатия : С потерями
Размер потока : 148 Мбайт (2%)
Заголовок : AC3, 2 ch, 192 Kbps, MVO
Язык : Russian
Default : Нет
Forced : Нет
Аудио #3
Идентификатор : 4
Формат : AC-3
Формат/Информация : Audio Coding 3
Расширение режима : CM (complete main)
Параметр Endianness формата : Big
Идентификатор кодека : A_AC3
Продолжительность : 1 ч. 47 м.
Вид битрейта : Постоянный
Битрейт : 448 Кбит/сек
Каналы : 6 каналов
Расположение каналов : Front: L C R, Side: L R, LFE
Частота : 48,0 КГц
Битовая глубина : 16 бит
Метод сжатия : С потерями
Размер потока : 345 Мбайт (4%)
Заголовок : AC3, 6 ch, 448 Kbps, MVO, 'Trance MG'
Язык : Russian
Default : Нет
Forced : Нет
Аудио #4
Идентификатор : 5
Формат : AC-3
Формат/Информация : Audio Coding 3
Расширение режима : CM (complete main)
Параметр Endianness формата : Big
Идентификатор кодека : A_AC3
Продолжительность : 1 ч. 47 м.
Вид битрейта : Постоянный
Битрейт : 448 Кбит/сек
Каналы : 6 каналов
Расположение каналов : Front: L C R, Side: L R, LFE
Частота : 48,0 КГц
Битовая глубина : 16 бит
Метод сжатия : С потерями
Размер потока : 345 Мбайт (4%)
Заголовок : AC3, 6 ch, 448 Kbps, DVO, 'Tycoon'
Язык : Russian
Default : Нет
Forced : Нет
Аудио #5
Идентификатор : 6
Формат : AC-3
Формат/Информация : Audio Coding 3
Расширение режима : CM (complete main)
Параметр Endianness формата : Big
Идентификатор кодека : A_AC3
Продолжительность : 1 ч. 47 м.
Вид битрейта : Постоянный
Битрейт : 448 Кбит/сек
Каналы : 6 каналов
Расположение каналов : Front: L C R, Side: L R, LFE
Частота : 48,0 КГц
Битовая глубина : 16 бит
Метод сжатия : С потерями
Размер потока : 345 Мбайт (4%)
Заголовок : AC3, 6 ch, 448 Kbps, AVO, Евгений Рудой
Язык : Russian
Default : Нет
Forced : Нет
Аудио #6
Идентификатор : 7
Формат : AC-3
Формат/Информация : Audio Coding 3
Расширение режима : CM (complete main)
Параметр Endianness формата : Big
Идентификатор кодека : A_AC3
Продолжительность : 1 ч. 47 м.
Вид битрейта : Постоянный
Битрейт : 192 Кбит/сек
Каналы : 2 канала
Расположение каналов : Front: L R
Частота : 48,0 КГц
Битовая глубина : 16 бит
Метод сжатия : С потерями
Размер потока : 148 Мбайт (2%)
Заголовок : AC3, 2 ch, 192 Kbps, Українська, 'ICTV'
Язык : Ukrainian
Default : Нет
Forced : Нет
Аудио #7
Идентификатор : 8
Формат : AC-3
Формат/Информация : Audio Coding 3
Расширение режима : CM (complete main)
Параметр Endianness формата : Big
Идентификатор кодека : A_AC3
Продолжительность : 1 ч. 47 м.
Вид битрейта : Постоянный
Битрейт : 640 Кбит/сек
Каналы : 6 каналов
Расположение каналов : Front: L C R, Side: L R, LFE
Частота : 48,0 КГц
Битовая глубина : 16 бит
Метод сжатия : С потерями
Размер потока : 493 Мбайт (5%)
Заголовок : AC3, 6 ch, 640 Kbps, Original
Язык : English
Default : Нет
Forced : Нет
Текст #1
Идентификатор : 9
Формат : UTF-8
Идентификатор кодека : S_TEXT/UTF8
Идентификатор кодека/Информация : UTF-8 Plain Text
Язык : Russian
Default : Нет
Forced : Нет
Текст #2
Идентификатор : 10
Формат : UTF-8
Идентификатор кодека : S_TEXT/UTF8
Идентификатор кодека/Информация : UTF-8 Plain Text
Язык : English
Default : Нет
Forced : Нет

Скриншоты

[Профиль] [ЛС]
Кто просматривает тему:

Форум Тема Автор Размер
BBC BBC: Horizon. Таинственные сигналы из космического пространства / Strange Signals from Outer Space! (Stephen Cooter) [2017 г., Документальный, научно-популярный, SATRip] skorpionN 739 MB
BBC BBC: Horizon. Таинственные сигналы из космического пространства / Strange Signals from Outer Space! [сезон 53 эпизод 3] (Stephen Cooter) [2017 г., Документальный, научно-популярный, HDTVRip-AVC 720p] skorpionN 1.57 GB
BBC BBC: Таинственный мир гормонов / The Fantastical World of Hormones with Professor John Wass (Джеймс Сенди / James Sandy) [2014 г., Документальный, научно-познавательный, исследование, HDTVRip 720p] skorpionN 1.75 GB
Боевики, детективы, триллеры Анна Князева - Серия книг Детектив с таинственной историей [2013-2015, FB2,RTF, RUS] Swager 43 MB
Ужасы и мистика Марк Твен - Таинственный незнакомец (2016) MP3 Swager 278 MB
Зарубежные мультфильмы Медведи Буни: Таинственная зима / Xiong Chumo Zhi Xueling Xiongfeng (2015) WEB-DLRip | iTunes BOSS 1.46 GB
Разная литература Михаил Герштейн, Вадим Деружинский - Нежить, или Таинственные существа (2015) FB2, RTF достали все 13 MB
Зарубежные Путешествие 2: Таинственный остров в 3Д / Journey 2: The Mysterious Island 3D (Брэд Пейтон / Brad Peyton) [2012, фантастика, фэнтези, боевик, комедия, приключения, семейный, Blu-ray Remux 1080p] BD3D TorrentFilm 27.42 GB
Показать сообщения:    

Текущее время: Сегодня 14:54

Часовой пояс: GMT



Вы не можете начинать темы
Вы не можете отвечать на сообщения
Вы не можете редактировать свои сообщения
Вы не можете удалять свои сообщения
Вы не можете голосовать в опросах
Вы не можете прикреплять файлы к сообщениям
Вы не можете скачивать файлы