Сёрвайвелист - специалист по выживанию / The Survivalist (2015) WEB-DL 720p | L1

 
Автор Сообщение

достали все ®

Пол:

Стаж: 1 год 8 месяцев

Сообщений: 6554



Награды: 12 (Подробнее)

Mega Seeder 5 (Количество: 1) Top Releaser 3 (Количество: 1) Mega Seeder 1 (Количество: 1)
Торрент-статистика

Создавать темы 16-Фев-2016 04:30

[Цитировать]

Информация о фильме
Название: Сёрвайвелист - специалист по выживанию
Оригинальное название: The Survivalist
Год выхода: 2015
Жанр: фантастика, триллер, драма
Режиссер: Стивен Финглтон
В ролях: Миа Гот, Мартин МакКанн, Эндрю Симпсон, Дуглас Расселл, Киери Ноддингс, Олуэн Фуэр, Райан МакПарланд, Киаран Флинн, Hussina Raja, Dexter Louca Godfrey
О фильме: Ближайшее будущее. После того как перенаселение истощило мировые ресурсы, количество жителей Земли существенно уменьшилось, а от индустриальных запасов еды, как и от цивилизованного существования, не осталось и следа. Выживальщик — это мужчина, который ищет проживание в лесах Северной Ирландии. Он явно демонстрирует, что ему никто не нужен и он никого не хочет видеть в своей жизни. Но когда появляются две женщины, мать и дочь, сексуальное влечение берет верх. И в результате образуется странная компания из трех человек.

Выпущено: Великобритания / Fyzz Facility Film One
Продолжительность: 01:43:32
Озвучивание: Любительское (одноголосое) [Вячеслав Замез aka zamez]
Файл
Формат: MKV
Качество: WEB-DL 720p
Видео: MPEG-4 AVC, 3904 kb/s, 1280x532
Аудио: Russian: MP3, 128 kb/s (2 ch) / English: AC3, 384 kb/s (6 ch)

MI

Format : Matroska
Format version : Version 2
File size : 3.26 GiB
Duration : 1h 43mn
Overall bit rate : 4 506 Kbps
Encoded date : UTC 2016-02-15 20:51:35
Writing application : mkvmerge v7.8.0 ('River Man') 32bit built on Apr 3 2015 12:11:22
Writing library : libebml v1.3.1 + libmatroska v1.4.2
Video
ID : 1
Format : AVC
Format/Info : Advanced Video Codec
Format profile : Main@L3.1
Format settings, CABAC : No
Format settings, ReFrames : 2 frames
Codec ID : V_MPEG4/ISO/AVC
Duration : 1h 43mn
Bit rate : 3 904 Kbps
Width : 1 280 pixels
Height : 532 pixels
Display aspect ratio : 2.40:1
Frame rate mode : Constant
Frame rate : 24.000 fps
Color space : YUV
Chroma subsampling : 4:2:0
Bit depth : 8 bits
Scan type : Progressive
Bits/(Pixel*Frame) : 0.239
Stream size : 2.82 GiB (87%)
Language : English
Default : Yes
Forced : No
Color range : Limited
Color primaries : BT.709
Transfer characteristics : BT.709
Matrix coefficients : BT.709
Audio #1
ID : 2
Format : MPEG Audio
Format version : Version 1
Format profile : Layer 3
Codec ID : A_MPEG/L3
Codec ID/Hint : MP3
Duration : 1h 43mn
Bit rate mode : Constant
Bit rate : 128 Kbps
Channel(s) : 2 channels
Sampling rate : 48.0 KHz
Compression mode : Lossy
Stream size : 94.8 MiB (3%)
Language : Russian
Default : Yes
Forced : No
Audio #2
ID : 3
Format : AC-3
Format/Info : Audio Coding 3
Mode extension : CM (complete main)
Format settings, Endianness : Big
Codec ID : A_AC3
Duration : 1h 43mn
Bit rate mode : Constant
Bit rate : 384 Kbps
Channel(s) : 6 channels
Channel positions : Front: L C R, Side: L R, LFE
Sampling rate : 48.0 KHz
Bit depth : 16 bits
Compression mode : Lossy
Stream size : 284 MiB (9%)
Language : English
Default : No
Forced : No
Menu
00:00:00.000 : en:Chapter 1
00:09:40.375 : en:Chapter 2
00:23:54.166 : en:Chapter 3
00:30:07.874 : en:Chapter 4
00:36:25.915 : en:Chapter 5
00:48:25.040 : en:Chapter 6
00:57:55.706 : en:Chapter 7
01:09:56.706 : en:Chapter 8
01:18:37.622 : en:Chapter 9
01:26:04.455 : en:Chapter 10
01:40:24.705 : en:Chapter 11

Скриншоты




[Профиль] [ЛС]
Показать сообщения:    

Текущее время: Сегодня 18:52

Часовой пояс: GMT



Вы не можете начинать темы
Вы не можете отвечать на сообщения
Вы не можете редактировать свои сообщения
Вы не можете удалять свои сообщения
Вы не можете голосовать в опросах
Вы не можете прикреплять файлы к сообщениям
Вы не можете скачивать файлы