С 8 марта, мужчины! (2014) WEB-DLRip-AVC от 0ptimus

 
Автор Сообщение

sergej644 ®

Пол:

Стаж: 4 года 11 месяцев

Сообщений: 6041

Откуда: Soviet Union



Награды: Нет

Торрент-статистика

Создавать темы 01-Дек-2014 15:22

[Цитировать]

| С 8 марта, мужчины! |Информация о фильме
Название: С 8 марта, мужчины!
Год выхода: 2014
Жанр: комедия, мелодрама
Режиссер: Артем Аксененко
В ролях: Мария Берсенева, Максим Виторган, Светлана Иванова, Михаил Башкатов, Вера Алентова, Константин Лавиш, Ксения Бородина, Владислав Лисовец, Стивен Нельсон, Алексей Климушкин
О фильме:
Анна Беркутова – блондинка в броне из мини-юбки и глубокого декольте. Ее оружие – красота, ум и абсолютная уверенность в том, что она знает мужчин. Она ведет важный проект в Сколково и собирается замуж за богатого иностранца. Но в день ее рождения, 8 марта, ее четкая, как финансовый отчет, судьба меняется: Аню бросает жених, ее проект крадут из Сколково, а сама она начинает слышать мысли мужчин. Эта способность сначала доводит ее до отчаяния, а затем открывает широкие возможности…

Страна: Россия, Беларусь
Студия: Беларусьфильм, Москит
Продолжительность: 01:38:33
Перевод: Не требуется
Файл
Кодек: h.264
Качество: WEB-DLRip-AVC
Видео: 2676 Кбит/с, 1024x576, 25.000 кадр/с
Звук: AC3, 6 ch, 384 Кбит/с

MediaInfo

---------------------------------------------------------------------------------------------------------------------
x264 [info]: frame I:1000 Avg QP:15.15 size: 69450
x264 [info]: frame P:43405 Avg QP:18.00 size: 25570
x264 [info]: frame B:103440 Avg QP:19.86 size: 7714
x264 [info]: consecutive B-frames: 3.2% 10.4% 6.6% 73.0% 3.2% 1.7% 0.6% 0.5% 0.1% 0.1% 0.0% 0.0% 0.1% 0.4%
---------------------------------------------------------------------------------------------------------------------
Полное имя : S.8.Marta.Muzchiny.2014.x264.WEB-DLRip-AVC.0ptimus.mkv
Формат : Matroska
Версия формата : Version 2
Размер файла : 2,11 Гбайт
Продолжительность : 1 ч. 38 м.
Общий поток : 3060 Кбит/сек
Название фильма : С 8 марта, мужчины! [2014] -= WEB-DLRip-AVC by 0ptimus =-
Дата кодирования : UTC 2014-12-01 08:11:51
Программа кодирования : mkvmerge v6.6.0 ('The Edge Of The In Between') built on Dec 1 2013 17:55:00
Библиотека кодирования : libebml v1.3.0 + libmatroska v1.4.1
Видео
Идентификатор : 1
Формат : AVC
Формат/Информация : Advanced Video Codec
Профиль формата : High@L4.1
Параметр CABAC формата : Да
Параметр ReFrames формата : 11 кадров
Идентификатор кодека : V_MPEG4/ISO/AVC
Продолжительность : 1 ч. 38 м.
Битрейт : 2676 Кбит/сек
Ширина : 1024 пикселя
Высота : 576 пикселей
Соотношение сторон : 16:9
Режим частоты кадров : Постоянный
Частота кадров : 25,000 кадров/сек
Цветовое пространство : YUV
Субдискретизация насыщенности : 4:2:0
Битовая глубина : 8 бит
Тип развёртки : Прогрессивная
Бит/(Пиксели*Кадры) : 0.181
Размер потока : 1,80 Гбайт (85%)
Заголовок : Rip by 0ptimus
Библиотека кодирования : x264 core 133 r2334 a3ac64b
Настройки программы : cabac=1 / ref=11 / deblock=1:-3:-3 / analyse=0x3:0x113 / me=umh / subme=11 / psy=1 / psy_rd=1.00:0.20 / mixed_ref=1 / me_range=32 / chroma_me=1 / trellis=2 / 8x8dct=1 / cqm=0 / deadzone=21,11 / fast_pskip=0 / chroma_qp_offset=-3 / threads=3 / lookahead_threads=1 / sliced_threads=0 / nr=0 / decimate=0 / interlaced=0 / bluray_compat=0 / constrained_intra=0 / bframes=13 / b_pyramid=2 / b_adapt=2 / b_bias=0 / direct=3 / weightb=1 / open_gop=0 / weightp=2 / keyint=250 / keyint_min=25 / scenecut=40 / intra_refresh=0 / rc_lookahead=40 / rc=2pass / mbtree=0 / bitrate=2676 / ratetol=1.0 / qcomp=0.60 / qpmin=0 / qpmax=69 / qpstep=4 / cplxblur=20.0 / qblur=0.5 / vbv_maxrate=50000 / vbv_bufsize=50000 / nal_hrd=none / ip_ratio=1.40 / pb_ratio=1.30 / aq=1:1.00
Язык : Russian
Default : Да
Forced : Да
Аудио
Идентификатор : 2
Формат : AC-3
Формат/Информация : Audio Coding 3
Расширение режима : CM (complete main)
Параметр Endianness формата : Big
Идентификатор кодека : A_AC3
Продолжительность : 1 ч. 38 м.
Вид битрейта : Постоянный
Битрейт : 384 Кбит/сек
Каналы : 6 каналов
Расположение каналов : Front: L C R, Side: L R, LFE
Частота : 48,0 КГц
Битовая глубина : 16 бит
Метод сжатия : С потерями
Размер потока : 271 Мбайт (13%)
Заголовок : AC3 5.1 @ 384 kbps
Язык : Russian
Default : Да
Forced : Да
Меню
00:00:00.000 : ru:Chapter #1
00:06:49.000 : ru:Chapter #2
00:11:51.000 : ru:Chapter #3
00:16:53.000 : ru:Chapter #4
00:21:53.000 : ru:Chapter #5
00:26:54.000 : ru:Chapter #6
00:32:03.000 : ru:Chapter #7
00:37:08.000 : ru:Chapter #8
00:42:10.000 : ru:Chapter #9
00:47:12.000 : ru:Chapter #10
00:52:15.000 : ru:Chapter #11
00:57:16.000 : ru:Chapter #12
01:02:20.000 : ru:Chapter #13
01:07:21.000 : ru:Chapter #14
01:12:34.000 : ru:Chapter #15
01:25:23.000 : ru:Chapter #16
01:30:26.000 : ru:Chapter #17

Скриншоты



Релиз от:
[Профиль] [ЛС]
Кто просматривает тему:

Показать сообщения:    

Текущее время: Сегодня 21:01

Часовой пояс: GMT



Вы не можете начинать темы
Вы не можете отвечать на сообщения
Вы не можете редактировать свои сообщения
Вы не можете удалять свои сообщения
Вы не можете голосовать в опросах
Вы не можете прикреплять файлы к сообщениям
Вы не можете скачивать файлы