С 5 до 7. Время любовников / 5 to 7 (2014) BDRip 1080p | iTunes

 
Автор Сообщение

Russian Mafia ®

Пол:

Стаж: 1 год 8 месяцев

Сообщений: 4246



Награды: 10 (Подробнее)

Mega Seeder 3 (Количество: 1) Top Releaser 4 (Количество: 1) Mega Seeder 4 (Количество: 1)
Торрент-статистика

Создавать темы 13-Сен-2016 19:20

[Цитировать]

Информация о фильме
Название: С 5 до 7. Время любовников
Оригинальное название: 5 to 7
Год выпуска: 2014
Жанр: Драма, мелодрама, комедия
Режиссер: Виктор Левин
В ролях: Беренис Марло, Оливия Тирлби, Эрик Столц, Антон Ельчин, Гленн Клоуз, Фрэнк Ланджелла, Ламбер Вильсон, Жослин ДеБоэр, Дов Тифенбах, Джозеф Д’Онофрио, Амина Робинсон, Келли Хартнет, Джулиан Бонд, Нэнси Дигонис, Грегг Майклс, Пол Торнтон, Хезер Уоррен, Дэвид Шеннон, Франческо Д’Онофрио, Лорен Карлсон
О фильме:
Молодой американец Брайан встречает красивую, веселую и очаровательную француженку Ариэль, с которой у него завязывается роман, существующий на одном условии: общаются они исключительно с 5 до 7 вечера, потому что Ариэль замужем. Для французов, как выясняется, такая форма отношений — привычное дело, так что со временем герои признаются в происходящем и мужу Ариэль, французскому дипломату, и ее детям, а заодно и маме Брайана. И всем, кажется, весело — пока влюбленный, но ущемленный Брайан не начинает страдать.

Страна: США
Студия: Demarest Films, Mockingbird Pictures
Продолжительность: 01:36:44
Перевод: Дублированный [iTunes]
Файл
Кодек: MPEG-4 AVC
Качество: BDRip (1080p)
Видео: 11100 Кбит/с, 1920x800
Звук: Русский (AC3, 6 ch, 384 Кбит/с), (AC3, 2 ch, 224 Кбит/с), английский (DTS, 6 ch, 1509 Кбит/с)
Семпл

Скрытый текст

General
Unique ID : 179797997883223373265637666235849138785 (0x8743D5B5DF94AEE2AFDAD0067DB06261)
Complete name : D:5.to.7.2014.x264.BDRip.1080p.NovaLan.mkv
Format : Matroska
Format version : Version 4 / Version 2
File size : 8.96 GiB
Duration : 1 h 36 min
Overall bit rate : 13.2 Mb/s
Movie name : 5 to 7 2014 - NovaLan
Encoded date : UTC 2016-07-24 14:27:52
Writing application : mkvmerge v6.9.1 ('Blue Panther') 64bit built on Apr 18 2014 18:23:38
Writing library : libebml v1.3.0 + libmatroska v1.4.1
Video
ID : 1
Format : AVC
Format/Info : Advanced Video Codec
Format profile : High@L4.1
Format settings, CABAC : Yes
Format settings, ReFrames : 4 frames
Codec ID : V_MPEG4/ISO/AVC
Duration : 1 h 36 min
Bit rate : 11.1 Mb/s
Width : 1 920 pixels
Height : 800 pixels
Display aspect ratio : 2.40:1
Frame rate mode : Constant
Frame rate : 24.000 FPS
Color space : YUV
Chroma subsampling : 4:2:0
Bit depth : 8 bits
Scan type : Progressive
Bits/(Pixel*Frame) : 0.302
Stream size : 7.35 GiB (82%)
Title : Sergei7721
Writing library : x264 core 148 r2705 3f5ed56
Encoding settings : cabac=1 / ref=4 / deblock=1:-1:-1 / analyse=0x3:0x113 / me=umh / subme=11 / psy=1 / psy_rd=1.00:0.20 / mixed_ref=1 / me_range=24 / chroma_me=1 / trellis=2 / 8x8dct=1 / cqm=0 / deadzone=21,11 / fast_pskip=0 / chroma_qp_offset=-3 / threads=12 / lookahead_threads=1 / sliced_threads=0 / nr=0 / decimate=0 / interlaced=0 / bluray_compat=0 / constrained_intra=0 / bframes=6 / b_pyramid=2 / b_adapt=2 / b_bias=0 / direct=3 / weightb=1 / open_gop=0 / weightp=2 / keyint=240 / keyint_min=24 / scenecut=40 / intra_refresh=0 / rc_lookahead=40 / rc=2pass / mbtree=0 / bitrate=11123 / ratetol=1.0 / qcomp=0.60 / qpmin=0 / qpmax=69 / qpstep=4 / cplxblur=20.0 / qblur=0.5 / vbv_maxrate=50000 / vbv_bufsize=62500 / nal_hrd=none / filler=0 / ip_ratio=1.40 / pb_ratio=1.30 / aq=1:1.00
Default : Yes
Forced : No
Audio #1
ID : 2
Format : AC-3
Format/Info : Audio Coding 3
Mode extension : CM (complete main)
Format settings, Endianness : Big
Codec ID : A_AC3
Duration : 1 h 36 min
Bit rate mode : Constant
Bit rate : 224 kb/s
Channel(s) : 2 channels
Channel positions : Front: L R
Sampling rate : 48.0 kHz
Frame rate : 31.250 FPS (1536 spf)
Compression mode : Lossy
Stream size : 155 MiB (2%)
Language : Russian
Default : Yes
Forced : No
Audio #2
ID : 3
Format : AC-3
Format/Info : Audio Coding 3
Mode extension : CM (complete main)
Format settings, Endianness : Big
Codec ID : A_AC3
Duration : 1 h 36 min
Bit rate mode : Constant
Bit rate : 384 kb/s
Channel(s) : 6 channels
Channel positions : Front: L C R, Side: L R, LFE
Sampling rate : 48.0 kHz
Frame rate : 31.250 FPS (1536 spf)
Compression mode : Lossy
Stream size : 266 MiB (3%)
Language : Russian
Default : No
Forced : No
Audio #3
ID : 4
Format : DTS
Format/Info : Digital Theater Systems
Mode : 16
Format settings, Endianness : Big
Codec ID : A_DTS
Duration : 1 h 36 min
Bit rate mode : Constant
Bit rate : 1 509 kb/s
Channel(s) : 6 channels
Channel positions : Front: L C R, Side: L R, LFE
Sampling rate : 48.0 kHz
Frame rate : 93.750 FPS (512 spf)
Bit depth : 24 bits
Compression mode : Lossy
Stream size : 1.02 GiB (11%)
Language : English
Default : No
Forced : No
Text
ID : 5
Format : UTF-8
Codec ID : S_TEXT/UTF8
Codec ID/Info : UTF-8 Plain Text
Language : English
Default : No
Forced : No
Menu
00:00:00.000 : en:00:00:00.000
00:04:53.125 : en:00:04:53.125
00:10:02.041 : en:00:10:02.041
00:14:05.375 : en:00:14:05.375
00:18:15.458 : en:00:18:15.458
00:22:48.250 : en:00:22:48.250
00:27:41.041 : en:00:27:41.041
00:32:28.833 : en:00:32:28.833
00:38:48.166 : en:00:38:48.166
00:43:44.916 : en:00:43:44.916
00:49:15.125 : en:00:49:15.125
00:53:54.916 : en:00:53:54.916
00:59:41.458 : en:00:59:41.458
01:03:27.416 : en:01:03:27.416
01:09:30.583 : en:01:09:30.583
01:11:57.500 : en:01:11:57.500
01:18:08.750 : en:01:18:08.750
01:23:40.875 : en:01:23:40.875
01:27:05.583 : en:01:27:05.583
01:31:06.500 : en:01:31:06.500
01:36:55.125 : en:01:36:55.125

Скриншоты


[Профиль] [ЛС]
Показать сообщения:    

Текущее время: Сегодня 18:20

Часовой пояс: GMT



Вы не можете начинать темы
Вы не можете отвечать на сообщения
Вы не можете редактировать свои сообщения
Вы не можете удалять свои сообщения
Вы не можете голосовать в опросах
Вы не можете прикреплять файлы к сообщениям
Вы не можете скачивать файлы