С 5 до 7. Время любовников / 5 to 7 (2014) BDRip 720p | iTunes

 
Автор Сообщение

достали все ®

Пол:

Стаж: 1 год 8 месяцев

Сообщений: 6600



Награды: 12 (Подробнее)

Mega Seeder 3 (Количество: 1) За внесенный вклад в развитие сайта (Количество: 1) Mega Seeder 1 (Количество: 1)
Торрент-статистика

Создавать темы 13-Сен-2016 14:10

[Цитировать]

Информация о фильме
Название: С 5 до 7. Время любовников
Оригинальное название: 5 to 7
Год выпуска: 2014
Жанр: Драма, мелодрама, комедия
Режиссер: Виктор Левин
В ролях: Беренис Марло, Оливия Тирлби, Эрик Столц, Антон Ельчин, Гленн Клоуз, Фрэнк Ланджелла, Ламбер Вильсон, Жослин ДеБоэр, Дов Тифенбах, Джозеф Д’Онофрио, Амина Робинсон, Келли Хартнет, Джулиан Бонд, Нэнси Дигонис, Грегг Майклс, Пол Торнтон, Хезер Уоррен, Дэвид Шеннон, Франческо Д’Онофрио, Лорен Карлсон
О фильме:
Молодой американец Брайан встречает красивую, веселую и очаровательную француженку Ариэль, с которой у него завязывается роман, существующий на одном условии: общаются они исключительно с 5 до 7 вечера, потому что Ариэль замужем. Для французов, как выясняется, такая форма отношений — привычное дело, так что со временем герои признаются в происходящем и мужу Ариэль, французскому дипломату, и ее детям, а заодно и маме Брайана. И всем, кажется, весело — пока влюбленный, но ущемленный Брайан не начинает страдать.

Страна: США
Студия: Demarest Films, Mockingbird Pictures
Продолжительность: 01:36:44
Перевод: Дублированный [iTunes]
Файл
Кодек: XviD
Качество: HDRip
Видео: 4402 Кбит/с, 1280x720
Звук: Русский (AC3, 6 ch, 384 Кбит/с), английский (AC3, 6 ch, 448 Кбит/с)
Семпл

Скрытый текст

General
Unique ID : 196965909769610118997008868661730390531 (0x942E411E0E7A79F18F4567C58846B203)
Complete name : D:Vremya.Lu60vHik0v.2014.D.BDRip.720p.mkv
Format : Matroska
Format version : Version 4 / Version 2
File size : 3.54 GiB
Duration : 1 h 36 min
Overall bit rate : 5 234 kb/s
Encoded date : UTC 2016-02-27 08:54:03
Writing application : mkvmerge v8.8.0 ('Wind at my back') 64bit
Writing library : libebml v1.3.3 + libmatroska v1.4.4
Video
ID : 1
Format : AVC
Format/Info : Advanced Video Codec
Format profile : High@L4.1
Format settings, CABAC : Yes
Format settings, ReFrames : 5 frames
Codec ID : V_MPEG4/ISO/AVC
Duration : 1 h 36 min
Bit rate : 4 402 kb/s
Width : 1 280 pixels
Height : 720 pixels
Display aspect ratio : 16:9
Frame rate mode : Constant
Frame rate : 23.976 FPS
Color space : YUV
Chroma subsampling : 4:2:0
Bit depth : 8 bits
Scan type : Progressive
Bits/(Pixel*Frame) : 0.199
Stream size : 2.97 GiB (84%)
Title : MoreFilms
Writing library : x264 core 148 r2597 e86f3a1
Encoding settings : cabac=1 / ref=5 / deblock=1:0:0 / analyse=0x3:0x133 / me=umh / subme=7 / psy=1 / psy_rd=1.00:0.00 / mixed_ref=1 / me_range=16 / chroma_me=1 / trellis=1 / 8x8dct=1 / cqm=0 / deadzone=21,11 / fast_pskip=0 / chroma_qp_offset=-2 / threads=18 / lookahead_threads=3 / sliced_threads=0 / nr=0 / decimate=1 / interlaced=0 / bluray_compat=0 / constrained_intra=0 / bframes=3 / b_pyramid=2 / b_adapt=2 / b_bias=0 / direct=3 / weightb=1 / open_gop=0 / weightp=2 / keyint=250 / keyint_min=23 / scenecut=40 / intra_refresh=0 / rc_lookahead=50 / rc=2pass / mbtree=1 / bitrate=4402 / ratetol=1.0 / qcomp=0.60 / qpmin=0 / qpmax=69 / qpstep=4 / cplxblur=20.0 / qblur=0.5 / ip_ratio=1.40 / aq=1:1.00
Language : English
Default : Yes
Forced : No
Audio #1
ID : 2
Format : AC-3
Format/Info : Audio Coding 3
Mode extension : CM (complete main)
Format settings, Endianness : Big
Codec ID : A_AC3
Duration : 1 h 36 min
Bit rate mode : Constant
Bit rate : 384 kb/s
Channel(s) : 6 channels
Channel positions : Front: L C R, Side: L R, LFE
Sampling rate : 48.0 kHz
Frame rate : 31.250 FPS (1536 spf)
Compression mode : Lossy
Stream size : 266 MiB (7%)
Language : Russian
Default : Yes
Forced : No
Audio #2
ID : 3
Format : AC-3
Format/Info : Audio Coding 3
Mode extension : CM (complete main)
Format settings, Endianness : Big
Codec ID : A_AC3
Duration : 1 h 36 min
Bit rate mode : Constant
Bit rate : 448 kb/s
Channel(s) : 6 channels
Channel positions : Front: L C R, Side: L R, LFE
Sampling rate : 48.0 kHz
Frame rate : 31.250 FPS (1536 spf)
Compression mode : Lossy
Stream size : 310 MiB (9%)
Language : English
Default : No
Forced : No
Menu
00:00:00.000 : en:00:00:00.000
00:07:43.380 : en:00:07:43.380
00:16:37.955 : en:00:16:37.955
00:22:37.481 : en:00:22:37.481
00:31:07.699 : en:00:31:07.699
00:38:42.529 : en:00:38:42.529
00:45:58.506 : en:00:45:58.506
00:53:55.315 : en:00:53:55.315
01:03:23.008 : en:01:03:23.008
01:11:49.847 : en:01:11:49.847
01:18:59.401 : en:01:18:59.401
01:26:58.088 : en:01:26:58.088

Скриншоты


[Профиль] [ЛС]
Показать сообщения:    

Текущее время: Сегодня 15:43

Часовой пояс: GMT



Вы не можете начинать темы
Вы не можете отвечать на сообщения
Вы не можете редактировать свои сообщения
Вы не можете удалять свои сообщения
Вы не можете голосовать в опросах
Вы не можете прикреплять файлы к сообщениям
Вы не можете скачивать файлы