С 5 до 7. Время любовников / 5 to 7 (2014) HDRip | iTunes

 
Автор Сообщение

Russian Mafia ®

Пол:

Стаж: 1 год 8 месяцев

Сообщений: 4257



Награды: 10 (Подробнее)

Mega Seeder 4 (Количество: 1) Top Releaser 4 (Количество: 1) Mega Seeder 3 (Количество: 1)
Торрент-статистика

Создавать темы 13-Сен-2016 09:26

[Цитировать]

Информация о фильме
Название: С 5 до 7. Время любовников
Оригинальное название: 5 to 7
Год выпуска: 2014
Жанр: Драма, мелодрама, комедия
Режиссер: Виктор Левин
В ролях: Беренис Марло, Оливия Тирлби, Эрик Столц, Антон Ельчин, Гленн Клоуз, Фрэнк Ланджелла, Ламбер Вильсон, Жослин ДеБоэр, Дов Тифенбах, Джозеф Д’Онофрио, Амина Робинсон, Келли Хартнет, Джулиан Бонд, Нэнси Дигонис, Грегг Майклс, Пол Торнтон, Хезер Уоррен, Дэвид Шеннон, Франческо Д’Онофрио, Лорен Карлсон
О фильме:
Молодой американец Брайан встречает красивую, веселую и очаровательную француженку Ариэль, с которой у него завязывается роман, существующий на одном условии: общаются они исключительно с 5 до 7 вечера, потому что Ариэль замужем. Для французов, как выясняется, такая форма отношений — привычное дело, так что со временем герои признаются в происходящем и мужу Ариэль, французскому дипломату, и ее детям, а заодно и маме Брайана. И всем, кажется, весело — пока влюбленный, но ущемленный Брайан не начинает страдать.

Страна: США
Студия: Demarest Films, Mockingbird Pictures
Продолжительность: 01:36:44
Перевод: Дублированный [iTunes]
Файл
Кодек: XviD
Качество: HDRip
Видео: 1744 Кбит/с, 720x400
Звук: Русский (АС3, 6 ch, 384 Кбит/с)
Семпл

Скрытый текст

General
Complete name : D:Vremya.Lu60vHik0v.2014.D.HDRip.1.46GB.avi
Format : AVI
Format/Info : Audio Video Interleave
File size : 1.44 GiB
Duration : 1 h 36 min
Overall bit rate : 2 137 kb/s
Writing application : VirtualDubMod 1.5.10.2 (build 2540/release)
Writing library : VirtualDubMod build 2540/release
Video
ID : 0
Format : MPEG-4 Visual
Format profile : Advanced Simple@L5
Format settings, BVOP : 2
Format settings, QPel : No
Format settings, GMC : No warppoints
Format settings, Matrix : Default (MPEG)
Codec ID : XVID
Codec ID/Hint : XviD
Duration : 1 h 36 min
Bit rate : 1 744 kb/s
Width : 720 pixels
Height : 400 pixels
Display aspect ratio : 16:9
Frame rate : 23.976 (24000/1001) FPS
Color space : YUV
Chroma subsampling : 4:2:0
Bit depth : 8 bits
Scan type : Progressive
Compression mode : Lossy
Bits/(Pixel*Frame) : 0.253
Stream size : 1.18 GiB (82%)
Writing library : XviD 1.2.1 (UTC 2008-12-04)
Audio
ID : 1
Format : AC-3
Format/Info : Audio Coding 3
Mode extension : CM (complete main)
Format settings, Endianness : Big
Codec ID : 2000
Duration : 1 h 36 min
Bit rate mode : Constant
Bit rate : 384 kb/s
Channel(s) : 6 channels
Channel positions : Front: L C R, Side: L R, LFE
Sampling rate : 48.0 kHz
Frame rate : 31.250 FPS (1536 spf)
Compression mode : Lossy
Stream size : 266 MiB (18%)
Alignment : Split accross interleaves
Interleave, duration : 42 ms (1.00 video frame)
Interleave, preload duratio : 500 ms

Скриншоты


[Профиль] [ЛС]
Показать сообщения:    

Текущее время: Сегодня 08:18

Часовой пояс: GMT



Вы не можете начинать темы
Вы не можете отвечать на сообщения
Вы не можете редактировать свои сообщения
Вы не можете удалять свои сообщения
Вы не можете голосовать в опросах
Вы не можете прикреплять файлы к сообщениям
Вы не можете скачивать файлы