С пяти до семи (2014) WEB-DL 1080p

 
Автор Сообщение

BOSS ®

Пол:

Стаж: 2 года 10 месяцев

Сообщений: 6749

Откуда: ODESSA



Награды: 20 (Подробнее)

Mega Seeder 3 (Количество: 1) Top Seeder 5 (Количество: 1) За внесенный вклад в развитие сайта (Количество: 1)
Торрент-статистика

Создавать темы 11-Авг-2017 16:30

[Цитировать]

Информация о фильме
Название: С пяти до семи
Год выхода: 2014
Жанр: драма, мелодрама
Режиссер: Владимир Щегольков
В ролях: Александр Ильин мл., Дарья Мельникова, Ирина Бутанаева, Константин Шелестун, Дмитрий Муляр, Амаду Мамадаков, Илзе Блауберга, Эдгарс Озолиньш, Мадара Мелне-Томсоне, Матин Умаров
О фильме:
Он ждал Анну. В кафе. Полгода. С пяти до семи.
Но пришла другая. Кафе стало местом их встреч.
Он и Она. Их истории. Попытки освободиться от прежней любви и начать новую жизнь. Все придется решить здесь — за столиком кафе…

Страна: Россия, Латвия
Продолжительность: 01:42:39
Файл
Формат: MKV
Видео: 1918x786 at 24.000 fps, MPEG-4 AVC, ~4582 kbps avg
Aудио#1: Russian: 48 kHz, AC3, 3/2 (L,C,R,l,r) + LFE ch, ~384.00 kbps avg
Субтитры: нет

Mediainfo

General
Unique ID : 220569355415622379044112116956849274581 (0xA5F01CD608F0FDDB981DBF829C5C7ED5)
Complete name : S.pjati.do.semi.WEB-DL.1080p.mkv
Format : Matroska
Format version : Version 4 / Version 2
File size : 3.56 GiB
Duration : 1 h 42 min
Overall bit rate : 4 968 kb/s
Encoded date : UTC 2017-03-27 20:15:19
Writing application : mkvmerge v8.3.0 ('Over the Horizon') 64bit
Writing library : libebml v1.3.1 + libmatroska v1.4.2
Video
ID : 1
Format : AVC
Format/Info : Advanced Video Codec
Format profile : High@L4
Format settings, CABAC : Yes
Format settings, RefFrames : 5 frames
Codec ID : V_MPEG4/ISO/AVC
Duration : 1 h 42 min
Bit rate : 4 582 kb/s
Width : 1 918 pixels
Height : 786 pixels
Display aspect ratio : 2.40:1
Frame rate mode : Constant
Frame rate : 24.000 FPS
Color space : YUV
Chroma subsampling : 4:2:0
Bit depth : 8 bits
Scan type : Progressive
Bits/(Pixel*Frame) : 0.127
Stream size : 3.29 GiB (92%)
Language : English
Default : Yes
Forced : No
Color range : Limited
Color primaries : BT.709
Transfer characteristics : BT.709
Matrix coefficients : BT.709
Audio
ID : 2
Format : AC-3
Format/Info : Audio Coding 3
Format settings, Endianness : Big
Codec ID : A_AC3
Duration : 1 h 42 min
Bit rate mode : Constant
Bit rate : 384 kb/s
Channel(s) : 6 channels
Channel positions : Front: L C R, Side: L R, LFE
Sampling rate : 48.0 kHz
Frame rate : 31.250 FPS (1536 SPF)
Bit depth : 16 bits
Compression mode : Lossy
Stream size : 282 MiB (8%)
Language : Russian
Service kind : Complete Main
Default : Yes
Forced : No
Menu
00:00:00.000 : en:Глава 1
00:04:57.416 : en:Глава 2
00:08:31.374 : en:Глава 3
00:15:03.749 : en:Глава 4
00:19:29.624 : en:Глава 5
00:27:58.332 : en:Глава 6
00:35:01.123 : en:Глава 7
00:43:01.956 : en:Глава 8
00:50:08.497 : en:Глава 9
00:56:20.955 : en:Глава 10
01:03:17.663 : en:Глава 11
01:09:05.538 : en:Глава 12
01:16:41.746 : en:Глава 13
01:21:54.912 : en:Глава 14
01:27:26.203 : en:Глава 15
01:33:54.994 : en:Глава 16

Скриншоты



[Профиль] [ЛС]
Кто просматривает тему:

Показать сообщения:    

Текущее время: Сегодня 09:56

Часовой пояс: GMT



Вы не можете начинать темы
Вы не можете отвечать на сообщения
Вы не можете редактировать свои сообщения
Вы не можете удалять свои сообщения
Вы не можете голосовать в опросах
Вы не можете прикреплять файлы к сообщениям
Вы не можете скачивать файлы