С праздниками ничто не сравнится / Nothing Like the Holidays (Альфредо Де Вилла / Alfredo De Villa) [2008, США, драма, мелодрама, комедия, BDRip] DVO + Original (eng) + Sub (rus, eng)

 
Автор Сообщение

TorrentFilm ®

Пол:

Стаж: 2 года

Сообщений: 7741



Награды: Нет

Торрент-статистика

Создавать темы 26-Дек-2014 02:00

[Цитировать]

С праздниками ничто не сравнится / Nothing Like the Holidays- Год выпуска: 2008
Страна: США
Жанр: драма, мелодрама, комедия
Продолжительность: 01:38:31
Перевод: Профессиональный (двухголосый, закадровый) R5
Оригинальная аудиодорожка: английская
Субтитры: русские (полные), английские (полные) |*srt|-Режиссёр: Альфредо Де Вилла / Alfredo De Villa-В ролях: Альфред Молина, Элизабет Пенья, Фредди Родригес, Луис Гусман, Джей Эрнандес, Джон Легуизамо, Дебра Мессинг, Ванесса Ферлито, Мелони Диас, Александр Баутиста, Рамзес Хименез, Мэнни Перес, Клаудия Мишель Уоллес, Шерил Хамада, Мэнни Соса, Дэвид Эрнандез, Сэм Дайер, Нидия Родригез Террачина, Улис Акоста, Ана Мария Альварез, Марша Райт, Джессика Цвейг, Джессика Камачо, Эдди Мартинес, Жаслин Гонзалез, Майкл Рейс, Брайан Силлс, Таня Сарачо, Брэнди МакКлендон-Описание: На рождественские каникулы в родовом поместье собирается вместе большая семья, чтобы подвести итоги уходящего года и вместе отметить праздник. Что и говорить, неделька им предстоит бурная и богатая на события. Они успеют обсудить последние новости, вспомнят свои традиции, услышат неожиданные признания своих родственников, успеют все перессориться, но, в конце концов, хорошее чувство юмора и немного рождественского волшебства помогут им преодолеть все обиды и еще больше сплотят их.- -Сэмпл: http://multi-up.com/1019035-Качество: BDRip [исх. BDRemux / 1080p]
Формат: AVI
Видео: 720x304 (2.37:1), 23.976 fps, XviD build 73 ~1530 kbps avg, 0.29 bit/pixel
Аудио 1: 48 kHz, AC3 Dolby Digital, 2/0 (L,R) ch, ~192.00 kbps avg |DVO|
Аудио 2: 48 kHz, AC3 Dolby Digital, 3/2 (L,C,R,l,r) + LFE ch, ~384.00 kbps avg |ENG|
-

Media Info

Формат                                   : AVI
Формат/Информация                        : Audio Video Interleave
Размер файла                             : 1,46 Гбайт
Продолжительность                        : 1 ч. 38 м.
Общий поток                              : 2119 Кбит/сек
Программа кодирования                    : VirtualDubMod 1.5.10.3 | www.virtualdub-fr.org || (build 2550/release)
Библиотека кодирования                   : VirtualDubMod build 2550/release
Видео
Идентификатор                            : 0
Формат                                   : MPEG-4 Visual
Профиль формата                          : Advanced Simple@L5
Параметр BVOP формата                    : 1
Параметр QPel формата                    : Нет
Параметр GMC формата                     : Без точки перехода
Параметр матрицы формата                 : Выборочная
Идентификатор кодека                     : XVID
Идентификатор кодека/Подсказка           : XviD
Продолжительность                        : 1 ч. 38 м.
Битрейт                                  : 1530 Кбит/сек
Ширина                                   : 720 пикселей
Высота                                   : 304 пикселя
Соотношение сторон                       : 2,35:1
Частота кадров                           : 23,976 кадра/сек
Цветовое пространство                    : YUV
Субдискретизация насыщенности            : 4:2:0
Битовая глубина                          : 8 бит
Тип развёртки                            : Прогрессивная
Метод сжатия                             : С потерями
Бит/(Пиксели*Кадры)                      : 0.291
Размер потока                            : 1,05 Гбайт (72%)
Библиотека кодирования                   : XviD 73
Аудио #1
Идентификатор                            : 1
Формат                                   : AC-3
Формат/Информация                        : Audio Coding 3
Расширение режима                        : CM (complete main)
Параметр Endianness формата              : Big
Идентификатор кодека                     : 2000
Продолжительность                        : 1 ч. 38 м.
Вид битрейта                             : Постоянный
Битрейт                                  : 192 Кбит/сек
Каналы                                   : 2 канала
Расположение каналов                     : Front: L R
Частота                                  : 48,0 КГц
Битовая глубина                          : 16 бит
Метод сжатия                             : С потерями
Размер потока                            : 135 Мбайт (9%)
Выравнивание                             : Разделение по промежуткам
Продолжительность промежутка             : 42  мс. (1,00 видеокадр)
Время предзагрузки промежутка            : 500  мс.
Аудио #2
Идентификатор                            : 2
Формат                                   : AC-3
Формат/Информация                        : Audio Coding 3
Расширение режима                        : CM (complete main)
Параметр Endianness формата              : Big
Идентификатор кодека                     : 2000
Продолжительность                        : 1 ч. 38 м.
Вид битрейта                             : Постоянный
Битрейт                                  : 384 Кбит/сек
Каналы                                   : 6 каналов
Расположение каналов                     : Front: L C R, Side: L R, LFE
Частота                                  : 48,0 КГц
Битовая глубина                          : 16 бит
Метод сжатия                             : С потерями
Размер потока                            : 271 Мбайт (18%)
Выравнивание                             : Разделение по промежуткам
Продолжительность промежутка             : 42  мс. (1,00 видеокадр)
Время предзагрузки промежутка            : 500  мс.

Скриншоты

Сравнение

http://torrentfilm.net/forum/viewtopic.php?t=2569939 - DVO, такой же
http://screenshotcomparison.com/comparison/103692
-
У конкурента в аудиодорожке брак -
http://multi-up.com/1019036
http://multi-up.com/1019038 - мой
[Профиль] [ЛС]

Создавать темы 06-Авг-2015 22:53 (спустя 7 месяцев 11 дней)

Топик был перенесен из форума Фильмы до 2014 года в форум Фильмы до 2012 года
sergej644
 

Создавать темы 12-Июн-2016 08:51 (спустя 1 год 5 месяцев)

Топик был перенесен из форума Фильмы 2011 года в форум Фильмы 2006-2008 года
Russian Mafia
 
Кто просматривает тему:

Показать сообщения:    

Текущее время: Сегодня 04:29

Часовой пояс: GMT



Вы не можете начинать темы
Вы не можете отвечать на сообщения
Вы не можете редактировать свои сообщения
Вы не можете удалять свои сообщения
Вы не можете голосовать в опросах
Вы не можете прикреплять файлы к сообщениям
Вы не можете скачивать файлы