С новым годом, мамы! (2012) BDRip от HQ-ViDEO

 
Автор Сообщение

sergej644 ®

Пол:

Стаж: 4 года 11 месяцев

Сообщений: 6038

Откуда: Soviet Union



Награды: Нет

Торрент-статистика

Создавать темы 31-Дек-2014 13:08

[Цитировать]

С новым годом, мамы!(2012) BDRip
«Праздничное кино»
Информация о фильме:
Оригинальное название: С новым годом, мамы!
Год выхода: 2012
Жанр: Комедия, Семейный
Режиссёр: Сарик Андреасян, Артем Аксененко, Дмитрий Грачев
В ролях: Максим Матвеев, Елизавета Боярская, Ален Делон /Alain Delon/, Ирина Розанова, Екатерина Вилкова, Максим Виторган, Павел Воля, Светлана Иванова, Константин Крюков, Гарик Харламов
Сюжет фильма:
В новой ленте зрители увидят новые истории и новые приключения новых героев, объединенных одним чувством — любовью к МАМЕ.
5 новелл. Смешные и трогательные, лиричные и комичные — каждая новелла расскажет историю мамы и ребенка, двух самых близких людей на свете. Ведь что бы ни происходило, мама всегда остается тем человеком, который будет любить всегда и несмотря ни на что…


Страна: Россия
Продолжительность: 01:24:20
Перевод: Не требуется
Субтитры: Отстутствуют
Информация о файле:
Качество: BDRip
Файл: AVI
Кодек: XviD, build 65 codec
Видео: 720 x 304, 2.37:1; 24.000 fps; ~ 2016 kbps; 0.384 bit/pixel
Аудио : 48 kHz, AC3 Dolby Digital, 3/2 (L,C,R,l,r) + LFE ch, ~448.00 kbps avg
Размер: 1492 Mb (1/3 )

MediaInfo

General
Format : AVI
Format/Info : Audio Video Interleave
File size : 1.46 GiB
Duration : 1h 24mn
Overall bit rate : 2 474 Kbps
Movie name : S.Novym.Godom.Mamy.2012.RUS.BDRip.XviD.AC3.-HQ-ViDEO
Director : AngelOfTrue
Writing application : VirtualDubMod 1.5.10.3 | www.virtualdub-fr.org || (build 2550/release)
Original source form/Name : Movie
Copyright : HQ-ViDEO
Comment : 03.03.2013
Video
ID : 0
Format : MPEG-4 Visual
Format profile : Advanced Simple@L5
Format settings, BVOP : 1
Format settings, QPel : No
Format settings, GMC : No warppoints
Format settings, Matrix : Custom
Codec ID : XVID
Codec ID/Hint : XviD
Duration : 1h 24mn
Bit rate : 2 016 Kbps
Width : 720 pixels
Height : 304 pixels
Display aspect ratio : 2.35:1
Frame rate : 24.000 fps
Color space : YUV
Chroma subsampling : 4:2:0
Bit depth : 8 bits
Scan type : Progressive
Compression mode : Lossy
Bits/(Pixel*Frame) : 0.384
Stream size : 1.19 GiB (82%)
Writing library : XviD 65
Audio
ID : 1
Format : AC-3
Format/Info : Audio Coding 3
Mode extension : CM (complete main)
Codec ID : 2000
Duration : 1h 24mn
Bit rate mode : Constant
Bit rate : 448 Kbps
Channel(s) : 6 channels
Channel positions : Front: L C R, Side: L R, LFE
Sampling rate : 48.0 KHz
Bit depth : 16 bits
Compression mode : Lossy
Stream size : 270 MiB (18%)
Alignment : Split accross interleaves
Interleave, duration : 42 ms (1.00 video frame)
Interleave, preload duration : 500 ms
Релиз:
Автор рипа: AngelOfTrue
Источник: ПРИЯТНОГО ПРОСМОТРА!
[Профиль] [ЛС]
Кто просматривает тему:

Показать сообщения:    

Текущее время: Сегодня 20:06

Часовой пояс: GMT



Вы не можете начинать темы
Вы не можете отвечать на сообщения
Вы не можете редактировать свои сообщения
Вы не можете удалять свои сообщения
Вы не можете голосовать в опросах
Вы не можете прикреплять файлы к сообщениям
Вы не можете скачивать файлы