С новым годом, мамы! (Сарик Андреасян, Артем Аксененко, Дмитрий Грачев) [2012, Россия, комедия, семейный, BDRip 720p] + Original Rus

 
Автор Сообщение

painkiller ®

Стаж: 2 года 3 месяца

Сообщений: 582



Награды: Нет

Торрент-статистика

Создавать темы 15-Авг-2014 10:20

[Цитировать]

-С новым годом, мамы!- Год выпуска:2012
Страна: Россия
Жанр: комедия, семейный
Год выпуска: 2012
Оригинальная аудиодорожка: русский
Режиссер: Сарик Андреасян, Артем Аксененко, Дмитрий Грачев
В ролях: Елизавета Боярская, Максим Матвеев, Павел Воля, Ирина Розанова, Ален Делон, Екатерина Вилкова, Светлана Иванова, Максим Виторган, Константин Крюков, Гарик Харламов...
Описание: В новой ленте зрители увидят новые истории и новые приключения новых героев, объединенных одним чувством — любовью к МАМЕ.
5 новелл. Смешные и трогательные, лиричные и комичные — каждая новелла расскажет историю мамы и ребенка, двух самых близких людей на свете. Ведь что бы ни происходило, мама всегда остается тем человеком, который будет любить всегда и несмотря ни на что…
Продолжительность: 01:21:02
Тип релиза: BDRip 720p
Контейнер: MKV
Видео: x.264, 24 fps, 1280x544, 4490 кбит/с
Аудио: DTS, 6ch (L, C, R, Ls, Rs +LFE), 1510 кбит/с, 48 кГц, 16 bits-Субтитры: Нет
Доп. информация:

MediaInfo

General
Unique ID : 201141497158178688003960257566334004323 (0x97527178694F528B8F533BB5E4642C63)
Complete name : S.novym.godom.mamy.2012.O.BDRip.720p.IRONCLUB.mkv
Format : Matroska
Format version : Version 2
File size : 3.61 GiB
Duration : 1h 24mn
Overall bit rate : 6 121 Kbps
Movie name : IRONCLUB
Encoded date : UTC 2013-01-25 05:08:51
Writing application : mkvmerge v5.2.0 ('I can't explain') built on Dec 18 2011 18:12:03
Writing library : libebml v1.2.3 + libmatroska v1.3.0
Video
ID : 1
Format : AVC
Format/Info : Advanced Video Codec
Format profile : High@L4.1
Format settings, CABAC : Yes
Format settings, ReFrames : 12 frames
Codec ID : V_MPEG4/ISO/AVC
Duration : 1h 24mn
Bit rate : 4 490 Kbps
Width : 1 280 pixels
Height : 544 pixels
Display aspect ratio : 2.35:1
Frame rate : 24.000 fps
Color space : YUV
Chroma subsampling : 4:2:0
Bit depth : 8 bits
Scan type : Progressive
Bits/(Pixel*Frame) : 0.269
Stream size : 2.64 GiB (73%)
Title : S novym godom mamy 720p BluRay DTS x264-IRONCLUB
Writing library : x264 core 129 r2245kMod bc13772
Encoding settings : cabac=1 / ref=12 / deblock=1:-3:-3 / analyse=0x3:0x113 / me=umh / subme=11 / psy=1 / fade_compensate=0.00 / psy_rd=1.00:0.00 / mixed_ref=1 / me_range=24 / chroma_me=1 / trellis=2 / 8x8dct=1 / cqm=0 / deadzone=21,11 / fast_pskip=0 / chroma_qp_offset=-2 / threads=12 / lookahead_threads=2 / sliced_threads=0 / nr=0 / decimate=1 / interlaced=0 / bluray_compat=0 / constrained_intra=0 / bframes=9 / b_pyramid=2 / b_adapt=2 / b_bias=0 / direct=3 / weightb=1 / open_gop=0 / weightp=2 / keyint=250 / keyint_min=24 / scenecut=40 / intra_refresh=0 / rc_lookahead=60 / rc=crf / mbtree=0 / crf=16.0000 / qcomp=0.70 / qpmin=0 / qpmax=69 / qpstep=4 / vbv_maxrate=50000 / vbv_bufsize=62500 / crf_max=0.0 / nal_hrd=none / ip_ratio=1.30 / pb_ratio=1.20 / aq=1:0.90
Language : Russian
Default : Yes
Forced : Yes
Audio
ID : 2
Format : DTS
Format/Info : Digital Theater Systems
Codec ID : A_DTS
Duration : 1h 24mn
Bit rate mode : Constant
Bit rate : 1 510 Kbps
Channel(s) : 6 channels
Channel positions : Front: L C R, Side: L R, LFE
Sampling rate : 48.0 KHz
Bit depth : 16 bits
Compression mode : Lossy
Stream size : 911 MiB (25%)
Title : DTS 5.1 @ 1536
Language : Russian
Default : Yes
Forced : Yes
Menu
00:00:00.000 : ru:Chapter 01
00:06:25.958 : ru:Chapter 02
00:10:41.708 : ru:Chapter 03
00:15:20.250 : ru:Chapter 04
00:22:55.375 : ru:Chapter 05
00:31:04.916 : ru:Chapter 06
00:38:52.000 : ru:Chapter 07
00:43:55.791 : ru:Chapter 08
00:48:07.041 : ru:Chapter 09
00:52:13.916 : ru:Chapter 10
00:59:28.875 : ru:Chapter 11
01:03:45.666 : ru:Chapter 12
01:10:33.291 : ru:Chapter 13
01:15:56.833 : ru:Chapter 14
01:20:32.750 : ru:Chapter 15
01:24:15.333 : ru:Chapter 16

Скриншоты

[Профиль] [ЛС]
Кто просматривает тему:

Показать сообщения:    

Текущее время: Сегодня 14:48

Часовой пояс: GMT



Вы не можете начинать темы
Вы не можете отвечать на сообщения
Вы не можете редактировать свои сообщения
Вы не можете удалять свои сообщения
Вы не можете голосовать в опросах
Вы не можете прикреплять файлы к сообщениям
Вы не можете скачивать файлы