С бору по сосенке (Валентина Брумберг, Зинаида Брумберг) [1974, рисованный мультфильм, DVB]

 
Автор Сообщение

TorrentFilm ®

Пол:

Стаж: 2 года

Сообщений: 7741



Награды: Нет

Торрент-статистика

Создавать темы 01-Янв-2016 00:15

[Цитировать]

С бору по сосенке
Жанр: рисованный мультфильм
Год выпуска: 1974
Продолжительность: 00:15:52
Режиссёр: Валентина Брумберг, Зинаида Брумберг
Описание: Веселый мультфильм о футбольном состязании между командами "Елки-палки" и "Дружба". Начальник команды "Елки-палки" Пень - Колода вместе с тренером Сучком отправились на поиски лучших деревянных футболистов. Но даже "великие" деревянные футболисты не смогли сломить сопротивление мальчишек из "Дружбы"! В спорте побеждает лишь тот, кто много и упорно тренируется и честно участвует в соревнованиях ...
Доп. информация:

Трансляция спутникового канала: "Карусель"
Качество видео: DVB
Формат видео: MPEG-PS
Видео: MPEG2 Video, 720x576, 25 fps, 3600 kbps
Аудио: MPEG Audio, 2 сh, 48 kHz, 192 kbps

MediaInfo

General
Complete name : D:\С бору по сосенке. (1974)_DVB by SLuMeP.mpg
Format : MPEG-PS
File size : 440 MiB
Duration : 15mn 52s
Overall bit rate mode : Variable
Overall bit rate : 3 877 Kbps
Video
ID : 224 (0xE0)
Format : MPEG Video
Format version : Version 2
Format profile : Main@Main
Format settings, BVOP : Yes
Format settings, Matrix : Custom
Format settings, GOP : M=3, N=12
Duration : 15mn 52s
Bit rate mode : Variable
Bit rate : 3 608 Kbps
Maximum bit rate : 5 000 Kbps
Width : 720 pixels
Height : 576 pixels
Display aspect ratio : 4:3
Frame rate : 25.000 fps
Standard : PAL
Color space : YUV
Chroma subsampling : 4:2:0
Bit depth : 8 bits
Scan type : Interlaced
Scan order : Top Field First
Compression mode : Lossy
Bits/(Pixel*Frame) : 0.348
Time code of first frame : 00:00:00:00
Time code source : Group of pictures header
Stream size : 410 MiB (93%)
Audio
ID : 192 (0xC0)
Format : MPEG Audio
Format version : Version 1
Format profile : Layer 2
Duration : 15mn 52s
Bit rate mode : Constant
Bit rate : 192 Kbps
Channel(s) : 2 channels
Sampling rate : 48.0 KHz
Compression mode : Lossy
Stream size : 21.8 MiB (5%)

Скриншоты

[Профиль] [ЛС]
Кто просматривает тему:

Показать сообщения:    

Текущее время: Сегодня 00:09

Часовой пояс: GMT



Вы не можете начинать темы
Вы не можете отвечать на сообщения
Вы не можете редактировать свои сообщения
Вы не можете удалять свои сообщения
Вы не можете голосовать в опросах
Вы не можете прикреплять файлы к сообщениям
Вы не можете скачивать файлы