Сэйв-Харбор / Safe Harbor (Джерри Джеймсон / Jerry Jameson) [2009, США, драма, HDTVRip] MVO

 
Автор Сообщение

painkiller ®

Стаж: 2 года 3 месяца

Сообщений: 582



Награды: Нет

Торрент-статистика

Создавать темы 17-Авг-2014 10:43

[Цитировать]

Сэйв-Харбор / Safe Harbor
Страна: США
Жанр: драма
Год выпуска: 2009
Продолжительность: 01:25:38
Перевод: Профессиональный (многоголосый закадровый)
Cубтитры: нет
Режиссер: Джерри Джеймсон / Jerry Jameson
В ролях: Трит Уильямс, Нэнси Трэвис, Рейли МакКлендон, Мира Терли, Камерон Монахэн, Джастин Олстон, Орсон Бин, Дэниэл Берилла, Джон Колтон, Памела Грэй
Описание: Даг и Робби Смит счастливая супружеская пара после выхода на пенсию собираются путешествовать по миру на своей парусной яхте. Их лучший друг, судья Дэвид просит чтобы они позаботились о двух трудных подростках которым грозит тюрьма, а мальчики могут помочь им подготовить яхту к отплытию. Супруги соглашаются и вскоре берут еще двух подростков под свою опеку. Общение с мальчиками изменяет их жизнь и планы. Они видят как подростки меняются в лучшею сторону и решают остаться в городе и открыть приют.
Доп. информация: За исходник большое спасибо Romanok8691
Сэмпл: https://yadi.sk/i/XRwyBGfTZkwPb
Качество видео: HDTVRip
Формат видео: AVI
Видео: 720x400 (1.80:1), 25 fps, XviD build 50 ~2099 kbps avg, 0.29 bit/pixel
Аудио: 48 kHz, AC3 Dolby Digital, 2/0 (L,R) ch, ~192 kbps

MediaInfo

Сэйв-Харбор - Safe Harbor [by Edich2].avi
Format : AVI
Format/Info : Audio Video Interleave
File size : 1.38 GiB
Duration : 1h 25mn
Overall bit rate : 2 302 Kbps
Movie name : Сэйв-Харбор - Safe Harbor [by Edich2]
Director : Rip by Edich2
Writing application : VirtualDubMod 1.5.10.3 | www.virtualdub-fr.org || (build 2550/release)
Comment : RuTracker.org
Video
ID : 0
Format : MPEG-4 Visual
Format profile : Advanced Simple@L5
Format settings, BVOP : 2
Format settings, QPel : No
Format settings, GMC : No warppoints
Format settings, Matrix : Custom
Codec ID : XVID
Codec ID/Hint : XviD
Duration : 1h 25mn
Bit rate : 2 100 Kbps
Width : 720 pixels
Height : 400 pixels
Display aspect ratio : 16:9
Frame rate : 25.000 fps
Color space : YUV
Chroma subsampling : 4:2:0
Bit depth : 8 bits
Scan type : Progressive
Compression mode : Lossy
Bits/(Pixel*Frame) : 0.292
Stream size : 1.26 GiB (91%)
Writing library : XviD 1.2.1 (UTC 2008-12-04)
Audio
ID : 1
Format : AC-3
Format/Info : Audio Coding 3
Mode extension : CM (complete main)
Format settings, Endianness : Big
Codec ID : 2000
Duration : 1h 25mn
Bit rate mode : Constant
Bit rate : 192 Kbps
Channel(s) : 2 channels
Channel positions : Front: L R
Sampling rate : 48.0 KHz
Bit depth : 16 bits
Compression mode : Lossy
Stream size : 118 MiB (8%)
Alignment : Split accross interleaves
Interleave, duration : 40 ms (1.00 video frame)
Interleave, preload duration : 500 ms

Скриншоты


[Профиль] [ЛС]

Создавать темы 06-Авг-2015 23:09 (спустя 11 месяцев 20 дней)

Топик был перенесен из форума Фильмы до 2014 года в форум Фильмы до 2012 года
sergej644
 

Создавать темы 12-Июн-2016 08:48 (спустя 1 год 9 месяцев)

Топик был перенесен из форума Фильмы 2011 года в форум Фильмы 2009 года
Russian Mafia
 
Кто просматривает тему:

Показать сообщения:    

Текущее время: Сегодня 22:36

Часовой пояс: GMT



Вы не можете начинать темы
Вы не можете отвечать на сообщения
Вы не можете редактировать свои сообщения
Вы не можете удалять свои сообщения
Вы не можете голосовать в опросах
Вы не можете прикреплять файлы к сообщениям
Вы не можете скачивать файлы