Сэйв-Харбор / Safe Harbor (Джерри Джеймсон / Jerry Jameson) [2009, США, драма, HDTV 1080i] MVO

 
Автор Сообщение

sergej644 ®

Пол:

Стаж: 4 года 11 месяцев

Сообщений: 6043

Откуда: Soviet Union



Награды: Нет

Торрент-статистика

Создавать темы 15-Авг-2014 21:12

[Цитировать]

Сэйв-Харбор / Safe Harbor Страна: США
Жанр: драма
Год выпуска: 2009
Продолжительность: 01:25:38
Перевод: Профессиональный (многоголосый закадровый)
Cубтитры: нет
Режиссер: Джерри Джеймсон / Jerry Jameson
В ролях: Трит Уильямс, Нэнси Трэвис, Рейли МакКлендон, Мира Терли, Камерон Монахэн, Джастин Олстон, Орсон Бин, Дэниэл Берилла, Джон Колтон, Памела Грэй
Описание: Даг и Робби Смит счастливая супружеская пара после выхода на пенсию собираются путешествовать по миру на своей парусной яхте. Их лучший друг, судья Дэвид просит чтобы они позаботились о двух трудных подростках которым грозит тюрьма, а мальчики могут помочь им подготовить яхту к отплытию. Супруги соглашаются и вскоре берут еще двух подростков под свою опеку. Общение с мальчиками изменяет их жизнь и планы. Они видят как подростки меняются в лучшею сторону и решают остаться в городе и открыть приют.

Сэмпл: http://sendfile.su/1011827
Тип релиза: HDTV 1080i
Контейнер: TS
Видео: AVC/H.264, PAL, 1920x1080 (16:9), 9037 Кбит/сек, 25.000 fps
Аудио: русский, MP-2, 48000 Hz, 192 Кбит/сек, 2 ch

MediaInfo

Видео
Идентификатор : 224 (0xE0)
Идентификатор меню : 1 (0x1)
Формат : AVC
Формат/Информация : Advanced Video Codec
Профиль формата : High@L4.1
Параметр CABAC формата : Да
Параметр ReFrames формата : 3 кадра
Идентификатор кодека : 27
Продолжительность : 1 ч. 25 м.
Вид битрейта : Постоянный
Битрейт : 9037 Кбит/сек
Ширина : 1920 пикселей
Высота : 1080 пикселей
Соотношение сторон : 16:9
Частота кадров : 25,000 кадров/сек
Стандарт вещания : PAL
Цветовое пространство : YUV
Субдискретизация насыщенности : 4:2:0
Битовая глубина : 8 бит
Тип развёртки : Чересстрочная
Порядок развёртки : Верхнее поле первое
Бит/(Пиксели*Кадры) : 0.174
Размер потока : 5,31 Гбайт (93%)
Основные цвета : BT.709
Характеристики трансфера : BT.709
Коэффициенты матрицы : BT.709
Аудио
Идентификатор : 192 (0xC0)
Идентификатор меню : 1 (0x1)
Формат : MPEG Audio
Версия формата : Version 1
Профиль формата : Layer 2
Идентификатор кодека : 3
Продолжительность : 1 ч. 25 м.
Вид битрейта : Постоянный
Битрейт : 192 Кбит/сек
Каналы : 2 канала
Частота : 48,0 КГц
Метод сжатия : С потерями
Задержка видео : 16 мс.
Размер потока : 118 Мбайт (2%)
Язык : Russian

Скриншот с названием фильма

Скриншоты

[Профиль] [ЛС]

Создавать темы 06-Авг-2015 23:10 (спустя 11 месяцев 22 дня)

Топик был перенесен из форума Фильмы до 2014 года в форум Фильмы до 2012 года
sergej644
 

Создавать темы 12-Июн-2016 08:48 (спустя 1 год 9 месяцев)

Топик был перенесен из форума Фильмы 2011 года в форум Фильмы 2009 года
Russian Mafia
 
Кто просматривает тему:

Показать сообщения:    

Текущее время: Сегодня 20:34

Часовой пояс: GMT



Вы не можете начинать темы
Вы не можете отвечать на сообщения
Вы не можете редактировать свои сообщения
Вы не можете удалять свои сообщения
Вы не можете голосовать в опросах
Вы не можете прикреплять файлы к сообщениям
Вы не можете скачивать файлы