Сырое / Grave (2016) BDRip 1080p | D, A, L1

 
Автор Сообщение

Swager ®

Пол:

Стаж: 2 года 8 месяцев

Сообщений: 1586



Награды: 4 (Подробнее)

Top Releaser 2 (Количество: 1) За внесенный вклад в развитие сайта (Количество: 1) Mega Seeder 2 (Количество: 1)
Торрент-статистика

Создавать темы 14-Июн-2018 07:59

[Цитировать]

Название: Сырое
Оригинальное название: Grave
Год выхода: 2016
Страна: Франция, Бельгия, Италия
Студия: Petit Film, Rouge International, Frakas Productions
Продолжительность: 01:38:32
Жанр: ужасы, драма
Режиссер: Джулия Дюкорно
В ролях: Геренс Марилье, Элла Рамф, Рабах Наит Уфелла, Лоран Люка, Джоана Прейсс, Були Ланнерс, Марион Верну, Томас Мустин, Марон Иддуб, Жан-Луи Сбий, ...
Перевод:
- Профессиональный (дублированный) ?
- Авторский (одноголосый, закадровый) Штейн Владимир Сергеевич
- Профессиональный (многоголосый, закадровый) Хихикающий доктор
- Субтитры от Lexandros
О фильме: В одной ветеринарной школе есть традиция — проводить ритуал поедания сырого мяса. Молодая вегетарианка, пересилив себя, проходит это испытание и понимает, что не может сопротивляться растущему желанию есть сырое мясо…

Кодек: x264
Качество: BDRip 1080p
Видео: 1920x804, 8000 kbps, 23,976 fps
Аудио #1: AC-3, 6 ch, 384 kbps (Rus) - Dub
Аудио #2: AC-3, 6 ch, 384 kbps (Rus) - AVO Штейн Владимир Сергеевич
Аудио #3: AC-3, 2 ch, 192 kbps (Rus) - VO Xixidok
Аудио #4: DTS, 6 ch, 1509 kbps (Fre)
Субтитры: русские, английские
Спасибо за исходник

MediaInfo

x264 [info]: frame I:830 Avg QP:14.01 size:192236
x264 [info]: frame P:32417 Avg QP:16.58 size: 75763
x264 [info]: frame B:108512 Avg QP:18.17 size: 30332
x264 [info]: consecutive B-frames: 2.8% 3.5% 13.1% 12.4% 13.3% 46.8% 3.9% 0.8% 0.7% 0.9% 1.8%
Общее
Уникальный идентификатор : 184390619257047530552574209715074049650 (0x8AB8576D245CAD548CFA5EA39B712672)
Полное имя : C:TorrentСырое (Grave) 2016 BDRip 1080p.mkv
Формат : Matroska
Версия формата : Version 2
Размер файла : 7,20 Гбайт
Продолжительность : 1 ч. 38 м.
Общий поток : 10,5 Мбит/сек
Дата кодирования : UTC 2018-06-14 05:12:56
Программа кодирования : mkvmerge v4.0.0 ('The Stars were mine') сборка от Jun 6 2010 16:18:42
Библиотека кодирования : libebml v1.0.0 + libmatroska v1.0.0
Видео
Идентификатор : 1
Формат : AVC
Формат/Информация : Advanced Video Codec
Профиль формата : High@L4.1
Параметр CABAC формата : Да
Параметр ReFrames формата : 5 кадров
Идентификатор кодека : V_MPEG4/ISO/AVC
Продолжительность : 1 ч. 38 м.
Битрейт : 8000 Кбит/сек
Ширина : 1920 пикселей
Высота : 804 пикселя
Соотношение сторон : 2,40:1
Режим частоты кадров : Постоянный
Частота кадров : 23,976 (24000/1001) кадра/сек
Цветовое пространство : YUV
Субдискретизация насыщенности : 4:2:0
Битовая глубина : 8 бит
Тип развёртки : Прогрессивная
Бит/(Пиксели*Кадры) : 0.216
Размер потока : 5,36 Гбайт (74%)
Библиотека кодирования : x264 core 146 r2538 121396c
Настройки программы : cabac=1 / ref=5 / deblock=1:-3:-3 / analyse=0x3:0x133 / me=umh / subme=11 / psy=1 / psy_rd=1.00:0.00 / mixed_ref=1 / me_range=32 / chroma_me=1 / trellis=2 / 8x8dct=1 / cqm=0 / deadzone=21,11 / fast_pskip=0 / chroma_qp_offset=-2 / threads=12 / lookahead_threads=2 / sliced_threads=0 / nr=0 / decimate=0 / interlaced=0 / bluray_compat=0 / constrained_intra=0 / bframes=10 / b_pyramid=2 / b_adapt=2 / b_bias=0 / direct=3 / weightb=1 / open_gop=0 / weightp=2 / keyint=240 / keyint_min=23 / scenecut=40 / intra_refresh=0 / rc=2pass / mbtree=0 / bitrate=8000 / ratetol=1.0 / qcomp=0.60 / qpmin=0 / qpmax=69 / qpstep=4 / cplxblur=20.0 / qblur=0.5 / ip_ratio=1.40 / pb_ratio=1.30 / aq=1:0.80
Язык : French
Default : Нет
Forced : Нет
Аудио #1
Идентификатор : 2
Формат : AC-3
Формат/Информация : Audio Coding 3
Расширение режима : CM (complete main)
Параметр Endianness формата : Big
Идентификатор кодека : A_AC3
Продолжительность : 1 ч. 38 м.
Вид битрейта : Постоянный
Битрейт : 384 Кбит/сек
Каналы : 6 каналов
Расположение каналов : Front: L C R, Side: L R, LFE
Частота : 48,0 КГц
Частота кадров : 31,250 кадров/сек (1536 spf)
Метод сжатия : С потерями
Размер потока : 271 Мбайт (4%)
Заголовок : Dub
Язык : Russian
Default : Нет
Forced : Нет
Аудио #2
Идентификатор : 3
Формат : AC-3
Формат/Информация : Audio Coding 3
Расширение режима : CM (complete main)
Параметр Endianness формата : Big
Идентификатор кодека : A_AC3
Продолжительность : 1 ч. 38 м.
Вид битрейта : Постоянный
Битрейт : 384 Кбит/сек
Каналы : 6 каналов
Расположение каналов : Front: L C R, Side: L R, LFE
Частота : 48,0 КГц
Частота кадров : 31,250 кадров/сек (1536 spf)
Метод сжатия : С потерями
Размер потока : 271 Мбайт (4%)
Заголовок : AVO Штейн Владимир Сергеевич
Язык : Russian
Default : Нет
Forced : Нет
Аудио #3
Идентификатор : 4
Формат : AC-3
Формат/Информация : Audio Coding 3
Расширение режима : CM (complete main)
Параметр Endianness формата : Big
Идентификатор кодека : A_AC3
Продолжительность : 1 ч. 38 м.
Вид битрейта : Постоянный
Битрейт : 192 Кбит/сек
Каналы : 2 канала
Расположение каналов : Front: L R
Частота : 48,0 КГц
Частота кадров : 31,250 кадров/сек (1536 spf)
Метод сжатия : С потерями
Размер потока : 135 Мбайт (2%)
Заголовок : VO Xixidok
Язык : Russian
Default : Нет
Forced : Нет
Аудио #4
Идентификатор : 5
Формат : DTS
Формат/Информация : Digital Theater Systems
Режим : 16
Параметр Endianness формата : Big
Идентификатор кодека : A_DTS
Продолжительность : 1 ч. 38 м.
Вид битрейта : Постоянный
Битрейт : 1509 Кбит/сек
Каналы : 6 каналов
Расположение каналов : Front: L C R, Side: L R, LFE
Частота : 48,0 КГц
Частота кадров : 93,750 кадра/сек (512 spf)
Битовая глубина : 24 бит
Метод сжатия : С потерями
Размер потока : 1,04 Гбайт (14%)
Язык : French
Default : Нет
Forced : Нет
Текст #1
Идентификатор : 6
Формат : UTF-8
Идентификатор кодека : S_TEXT/UTF8
Идентификатор кодека/Информация : UTF-8 Plain Text
Заголовок : Lexandros
Язык : Russian
Default : Нет
Forced : Нет
Текст #2
Идентификатор : 7
Формат : UTF-8
Идентификатор кодека : S_TEXT/UTF8
Идентификатор кодека/Информация : UTF-8 Plain Text
Язык : English
Default : Нет
Forced : Нет
Текст #3
Идентификатор : 8
Формат : UTF-8
Идентификатор кодека : S_TEXT/UTF8
Идентификатор кодека/Информация : UTF-8 Plain Text
Заголовок : SDH
Язык : English
Default : Нет
Forced : Нет
Меню
00:00:00.000 : en:Chapter 1
00:02:49.961 : en:Chapter 2
00:06:27.011 : en:Chapter 3
00:12:44.638 : en:Chapter 4
00:16:40.374 : en:Chapter 5
00:22:37.147 : en:Chapter 6
00:27:55.590 : en:Chapter 7
00:31:51.534 : en:Chapter 8
00:36:50.791 : en:Chapter 9
00:42:03.145 : en:Chapter 10
00:47:29.680 : en:Chapter 11
00:50:26.648 : en:Chapter 12
00:55:41.463 : en:Chapter 13
01:01:51.541 : en:Chapter 14
01:07:02.101 : en:Chapter 15
01:11:05.511 : en:Chapter 16
01:17:01.158 : en:Chapter 17
01:21:52.449 : en:Chapter 18
01:30:13.741 : en:Chapter 19
01:32:44.517 : en:Chapter 20

[Профиль] [ЛС]
Показать сообщения:    

Текущее время: Сегодня 22:25

Часовой пояс: GMT



Вы не можете начинать темы
Вы не можете отвечать на сообщения
Вы не можете редактировать свои сообщения
Вы не можете удалять свои сообщения
Вы не можете голосовать в опросах
Вы не можете прикреплять файлы к сообщениям
Вы не можете скачивать файлы