Сын отца народов [01-12 из 12] (2013) WEB-DLRip 1080p

 
Автор Сообщение

Белочка ®

Пол:

Стаж: 5 лет 1 месяц

Сообщений: 2089



Награды: 1 (Подробнее)

Girls (Количество: 1)
Торрент-статистика

Создавать темы 18-Дек-2014 11:10

[Цитировать]

Информация о фильме
Название: Сын отца народов
Год выхода: 2013
Жанр: Биография, драма, исторический
Режиссер: Сергей Гинзбург, Сергей Щербин
В ролях: Гела Месхи, Анатолий Гущин, Михаил Беспалов, Надежда Михалкова, Василий Прокопьев, Александр Никольский, Алексей Вертков, Артём Осипов, Светлана Колпакова, Евгений Сангаджиев, Марьяна Спивак, Мария Жиганова, Кристина Пакарина, Илья Ермолов, Ольга Сковородка, Артем Гулак, Сергей Газаров, Маргарита Иванова, Юрий Маслак, Анатолий Дзиваев
О фильме:
Многосерийный драматический сериал Сергея Гинзбурга и Сергея Щербина, рассказывающий о жизни и судьбе Василия Сталина. Практически с рождения у героя было все, что он мог пожелать: ордена, квартиры, власть, однако после смерти его великого отца все меняется…
Режиссерами фильма стали Сергей Гинзбур, ранее работавший на сериалах «Убить Сталина» и «Жизнь и приключения Миши Япончика», а также Сергей Щербин, самыми известными проектами которого являются «Доктор Живаго» и «Страсти по Чапаю». Сценарий к фильму написал заслуженный отечественный сценарист Эдуард Володарский. Нельзя не отметить также отличную игру исполнителя главной роли Гелы Месхи.
Василий Сталин… Испорченный абсолютной властью отца, его честолюбием и жестокостью, в то же время по-человечески простой, мечтающий о любимой женщине и работе, он был одним из самых ярких представителей «золотой молодежи» XX века. Став генералом-лейтенантом в 26 лет, он задал курс всей своей будущей жизни, но все изменилось со смертью его авторитарного отца…
Страна: Россия
Продолжительность: ~ 00:45:00
Перевод: Не требуеться
Файл
Кодек: AVC
Качество: WEB-DLRip 1080p
Видео: MPEG4 Video (H264), 1916x1078, 25fps, 5086kbps
Аудио:#1 AAC, 48Hz, stereo, 181kbps, 2ch
Аудио:#2 Dolby AC3, 48Hz, stereo, 256kbps, 2ch

MediaInfo

Format : MPEG-4
Format profile : Base Media
Codec ID : isom
File size : 1.98 GiB
Duration : 51mn 12s
Overall bit rate : 5 528 Kbps
Writing application : Lavf55.33.100
Video
ID : 1
Format : AVC
Format/Info : Advanced Video Codec
Format profile : High@L4.0
Format settings, CABAC : Yes
Format settings, ReFrames : 3 frames
Codec ID : avc1
Codec ID/Info : Advanced Video Coding
Duration : 51mn 12s
Bit rate : 5 102 Kbps
Width : 1 916 pixels
Height : 1 078 pixels
Display aspect ratio : 16:9
Frame rate mode : Constant
Frame rate : 25.000 fps
Color space : YUV
Chroma subsampling : 4:2:0
Bit depth : 8 bits
Scan type : Progressive
Bits/(Pixel*Frame) : 0.099
Stream size : 1.82 GiB (92%)
Writing library : x264 core 142
Encoding settings : cabac=1 / ref=4 / deblock=1:0:0 / analyse=0x3:0x133 / me=hex / subme=7 / psy=1 / psy_rd=1.00:0.00 / mixed_ref=1 / me_range=16 / chroma_me=1 / trellis=2 / 8x8dct=1 / cqm=0 / deadzone=21,11 / fast_pskip=1 / chroma_qp_offset=-2 / threads=4 / lookahead_threads=1 / sliced_threads=0 / nr=0 / decimate=1 / interlaced=0 / bluray_compat=0 / constrained_intra=0 / bframes=6 / b_pyramid=1 / b_adapt=2 / b_bias=0 / direct=3 / weightb=1 / open_gop=0 / weightp=2 / keyint=100 / keyint_min=51 / scenecut=0 / intra_refresh=0 / rc_lookahead=50 / rc=2pass / mbtree=1 / bitrate=5102 / ratetol=1.0 / qcomp=0.60 / qpmin=0 / qpmax=69 / qpstep=4 / cplxblur=20.0 / qblur=0.5 / vbv_maxrate=6633 / vbv_bufsize=7654 / nal_hrd=none / filler=0 / ip_ratio=1.40 / aq=1:1.00
Language : English
Tagged date : UTC 2014-09-24 17:41:37
Audio #1
ID : 2
Format : AAC
Format/Info : Advanced Audio Codec
Format profile : LC
Codec ID : 40
Duration : 51mn 12s
Duration_LastFrame : 43ms
Bit rate mode : Constant
Bit rate : 181 Kbps
Channel(s) : 2 channels
Channel positions : Front: L R
Sampling rate : 48.0 KHz
Compression mode : Lossy
Stream size : 66.4 MiB (3%)
Language : English
Tagged date : UTC 2014-09-24 17:41:37
Audio #2
ID : 3
Format : AC-3
Format/Info : Audio Coding 3
Mode extension : CM (complete main)
Format settings, Endianness : Big
Codec ID : ac-3
Duration : 51mn 12s
Bit rate mode : Constant
Bit rate : 256 Kbps
Channel(s) : 2 channels
Channel positions : Front: L R
Sampling rate : 48.0 KHz
Bit depth : 16 bits
Compression mode : Lossy
Stream size : 93.8 MiB (5%)
Language : English
Tagged date : UTC 2014-09-24 17:41:37
[Профиль] [ЛС]
Кто просматривает тему:

Показать сообщения:    

Текущее время: Сегодня 02:25

Часовой пояс: GMT



Вы не можете начинать темы
Вы не можете отвечать на сообщения
Вы не можете редактировать свои сообщения
Вы не можете удалять свои сообщения
Вы не можете голосовать в опросах
Вы не можете прикреплять файлы к сообщениям
Вы не можете скачивать файлы