Сын отца народов (2013) DVDRip (серии 1-12 из 12)

 
Автор Сообщение

sergej644 ®

Пол:

Стаж: 4 года 11 месяцев

Сообщений: 6035

Откуда: Soviet Union



Награды: Нет

Торрент-статистика

Создавать темы 06-Ноя-2014 10:20

[Цитировать]

-Сын отца народов (2013) DVDRip (серии 1-12 из 12)- Производство: "Film.ua", Россия
Год выпуска: 2013
Жанр: Биография, Драма, Исторический
Режиссер: Сергей Гинзбург, Сергей Щербин
Актеры: Гела Месхи, Василий Прокопьев, Анатолий Дзиваев, Сергей Газаров, Надежда Михалкова, Илья Ермолов, Алексей Вертков, Александр Никольский (II), Анатолий Гущин, Евгений Сангаджиев, Кристина Пакарина, Мария Жиганова, Артём Осипов, Светлана Колпакова, Юрий Маслак, Марьяна Спивак, Анна Кирина, Дмитрий Абазовик, Иван Суханов, Максим Сапрыкин (II), Мария Андреева
Описание фильма:
Сюжет сериала расскажет о трагической судьбе сына вождя народа. Жизнь Василия Сталина изменилась коренным образом после смерти его отца, прославившегося как в России так и за рубежом.

Дата российской премьеры: 19.08.2013
Продолжительность: ~ 00:52:00 серия
Качество видео: DVDRip
Видеокодек: Xvid
Битрейт видео: ~1800 Kbps
Размер кадра: 720x400 (16:9)
Аудиокодек: AC3
Битрейт аудио: 2 ch, 192 Kbps

MediaInfo:

Общее
Полное имя : E:\DOWNLOADS\Сын отца народов (2013) DVDRip\Сын отца народов - 01 серия.avi
Формат : AVI
Формат/Информация : Audio Video Interleave
Размер файла : 734 Мбайт
Продолжительность : 51 м.
Общий поток : 2001 Кбит/сек
Программа кодирования : VirtualDubMod 1.5.10.3 | [url=http://www.virtualdub-fr.org]www.virtualdub-fr.org[/url] || (build 2550/release)
Библиотека кодирования : VirtualDubMod build 2550/release
Видео
Идентификатор : 0
Формат : MPEG-4 Visual
Профиль формата : Advanced Simple@L5
Параметр BVOP формата : 1
Параметр QPel формата : Нет
Параметр GMC формата : Без точки перехода
Параметр матрицы формата : Выборочная
Идентификатор кодека : XVID
Идентификатор кодека/Подсказка : XviD
Продолжительность : 51 м.
Битрейт : 1800 Кбит/сек
Ширина : 720 пикселей
Высота : 400 пикселей
Соотношение сторон : 16:9
Частота кадров : 25,000 кадров/сек
Цветовое пространство : YUV
Субдискретизация насыщенности : 4:2:0
Битовая глубина : 8 бит
Тип развёртки : Прогрессивная
Метод сжатия : С потерями
Бит/(Пиксели*Кадры) : 0.250
Размер потока : 660 Мбайт (90%)
Библиотека кодирования : XviD 1.2.1 (UTC 2008-12-04)
Аудио
Идентификатор : 1
Формат : AC-3
Формат/Информация : Audio Coding 3
Расширение режима : CM (complete main)
Параметр Endianness формата : Big
Идентификатор кодека : 2000
Продолжительность : 51 м.
Вид битрейта : Постоянный
Битрейт : 192 Кбит/сек
Каналы : 2 канала
Расположение каналов : Front: L R
Частота : 48,0 КГц
Битовая глубина : 16 бит
Метод сжатия : С потерями
Размер потока : 70,4 Мбайт (10%)
Выравнивание : Разделение по промежуткам
Продолжительность промежутка : 40 мс. (1,00 видеокадр)
Время предзагрузки промежутка : 500 мс.
Скриншоты:
Время раздачи: с 10.00 до 20.00
[Профиль] [ЛС]
Кто просматривает тему:

Показать сообщения:    

Текущее время: Сегодня 09:57

Часовой пояс: GMT



Вы не можете начинать темы
Вы не можете отвечать на сообщения
Вы не можете редактировать свои сообщения
Вы не можете удалять свои сообщения
Вы не можете голосовать в опросах
Вы не можете прикреплять файлы к сообщениям
Вы не можете скачивать файлы