Сын моего отца [01-20 из 20] (2016) HDTVRip

 
Автор Сообщение

BOSS ®

Пол:

Стаж: 2 года 2 месяца

Сообщений: 3751

Откуда: ODESSA



Награды: 20 (Подробнее)

Top Keeper 1 (Количество: 1) Mega Releaser 1 (Количество: 1) Mega Seeder 5 (Количество: 1)
Торрент-статистика

Создавать темы 28-Янв-2016 21:11

[Цитировать]

Информация о фильме
Оригинальное название: Сын моего отца
Год выпуска: 2016
Жанр: Криминальный фильм, мелодрама
Режиссер: Станислав Дремов
В ролях: Владимир Жеребцов, Сергей Астахов, Евгения Осипова, Дарья Мингазетдинова, Тамара Акулова, Олег Леушин, Ксения Буравская, Александр Барановский, Кирилл Козаков, Олег Морозов, Оксана Семёнова, Иван Косичкин, Петр Черняев, Луиза Мосендз, Сергей Греков, Александр Пашутин, Татьяна Ташкова, Жанна Эппле, Михаил Слесарев
О фильме:
Эта история о предательстве и выборе, стоящем перед двумя братьями. Они оба талантливые нейрохирурги и оба могут возглавить клинику отца. Правда у них слишком разные взгляды на жизнь, а еще они влюблены в одну женщину. Глеб Романов (Владимир Жеребцов) - талантливый нейрохирург, работает в клинике в небольшом городе Озерске и готовится к свадьбе с любимой девушкой - певицей Ланой (Евгения Осипова). Но жизнь Глеба меняется навсегда, когда домой возвращается его брат Борис (Сергей Астахов). Когда-то Лана была влюблена в Бориса. Теперь он решает во чтобы то ни стало помешать их свадьбе.
Выпущено: Россия, Кинокомпания "Киноград 21"
Продолжительность: 20 х ~ 00:44:00
Перевод: Не требуется
Файл
Качество: HDTVRip
Видео: XviD, ~ 920 Кбит/с, 656x368
Аудио: MP3, 2 ch, 128 Кбит/с

МедиаИнфо

Полное имя : Syn.Moego.Otca.2015.XviD.HDTVRip.by.GeneralFilm�1.seriya.avi
Формат : AVI
Формат/Информация : Audio Video Interleave
Размер файла : 334 Мбайт
Продолжительность : 43 м.
Общий поток : 1062 Кбит/сек
Программа кодирования : VirtualDubMod 1.5.10.3 | www.virtualdub-fr.org || (build 2550/release)
Библиотека кодирования : VirtualDubMod build 2550/release
Видео
Идентификатор : 0
Формат : MPEG-4 Visual
Профиль формата : Advanced Simple@L5
Параметр BVOP формата : 1
Параметр QPel формата : Нет
Параметр GMC формата : Без точки перехода
Параметр матрицы формата : Выборочная
Идентификатор кодека : XVID
Идентификатор кодека/Подсказка : XviD
Продолжительность : 43 м.
Битрейт : 925 Кбит/сек
Ширина : 656 пикселей
Высота : 368 пикселей
Соотношение сторон : 16:9
Частота кадров : 25,000 кадров/сек
Цветовое пространство : YUV
Субдискретизация насыщенности : 4:2:0
Битовая глубина : 8 бит
Тип развёртки : Прогрессивная
Метод сжатия : С потерями
Бит/(Пиксели*Кадры) : 0.153
Размер потока : 291 Мбайт (87%)
Библиотека кодирования : XviD 73
Аудио
Идентификатор : 1
Формат : MPEG Audio
Версия формата : Version 1
Профиль формата : Layer 3
Идентификатор кодека : 55
Идентификатор кодека/Подсказка : MP3
Продолжительность : 43 м.
Вид битрейта : Постоянный
Битрейт : 128 Кбит/сек
Каналы : 2 канала
Частота : 48,0 КГц
Метод сжатия : С потерями
Размер потока : 40,3 Мбайт (12%)
Выравнивание : Соединение по промежуткам
Продолжительность промежутка : 40 мс. (1,00 видеокадр)
Время предзагрузки промежутка : 504 мс.
Библиотека кодирования : LAME3.99r
Настройки программы : -m s -V 4 -q 0 -lowpass 17 -b 128

Скриншоты





[Профиль] [ЛС]
Кто просматривает тему:

Показать сообщения:    

Текущее время: Сегодня 14:10

Часовой пояс: GMT



Вы не можете начинать темы
Вы не можете отвечать на сообщения
Вы не можете редактировать свои сообщения
Вы не можете удалять свои сообщения
Вы не можете голосовать в опросах
Вы не можете прикреплять файлы к сообщениям
Вы не можете скачивать файлы