Сын Божий / Son of God (Кристофер Спенсер / Christopher Spencer) [2014, США, драма, HDRip] VO (qwerty)

 
Автор Сообщение

Создавать темы 14-Июл-2014 09:08

-Сын Божий / Son of God- Страна: США
Жанр: драма
Год выпуска: 2014
Продолжительность: 02:18:13
Перевод: Любительский (одноголосый) - qwerty
Cубтитры: нет
Оригинальная аудиодорожка: нет
Режиссер: Кристофер Спенсер / Christopher Spencer
Студия: Hearst Entertainment Productions Inc., LightWorkers Media
В ролях:
Себастьян Кнапп, Пол Нопс, Дарси Линкольн, Дэвид Ринтул, Гари Оливер, Уильям Хьюстон, Стюарт Скудамор, Нонсо Анози, Конан Стивенс, Джасса Ахлувалиа, Лэнгли Кирквуд, Джо Коэн, Лейла Миммек, Эндрю Брук, Луиз Деламер, Диого Моргадо, Дауд Шах, Эмбер Роуз Рева, Мэттью Гравель, Пол Марк Дэвис, Фрайзер Эйрс, Адриан Шиллер, Пол Брайтвелл, Саймон Кунц, Рома Дауни, Дэниэл.
Описание:
История Иисуса Христа от Рождения, до Его учения, Распятия и Вознесения.

Качество видео: HDRip
Формат видео: AVI
Видео: Xvid, 720x304, 23.976fps, 1255kbps
Аудио: Dolby AC3, 48000Hz, 6 channels, 192kbps

MediaInfo

General
Format : AVI
Format/Info : Audio Video Interleave
File size : 1.46 GiB
Duration : 2h 18mn
Overall bit rate : 1 516 Kbps
Movie name : Son.of.God.2014.VO.HDRip
Director : http:// СПАМ
Writing application : VirtualDubMod 1.5.10.3 | www.virtualdub-fr.org || (build 2550/release)
Video
ID : 0
Format : MPEG-4 Visual
Codec ID : XVID
Codec ID/Hint : XviD
Duration : 2h 18mn
Bit rate : 1 255 Kbps
Width : 720 pixels
Height : 304 pixels
Display aspect ratio : 2.35:1
Frame rate : 23.976 fps
Color space : YUV
Chroma subsampling : 4:2:0
Compression mode : Lossy
Bits/(Pixel*Frame) : 0.239
Stream size : 1.21 GiB (83%)
Audio
ID : 1
Format : AC-3
Format/Info : Audio Coding 3
Codec ID : 2000
Duration : 2h 18mn
Bit rate mode : Constant
Bit rate : 192 Kbps
Channel(s) : 6 channels
Sampling rate : 48.0 KHz
Compression mode : Lossy
Stream size : 190 MiB (13%)
Alignment : Aligned on interleaves

Screenshot movie title

Сравнение">

Screenshots Сравнение


Сравнивал вот с этой раздачей - http://torrentfilm.net/forum/viewtopic.php?t=4715050
WEB-DLRip vs HDRip
 
Кто просматривает тему:

Показать сообщения:    

Текущее время: Сегодня 12:48

Часовой пояс: GMT



Вы не можете начинать темы
Вы не можете отвечать на сообщения
Вы не можете редактировать свои сообщения
Вы не можете удалять свои сообщения
Вы не можете голосовать в опросах
Вы не можете прикреплять файлы к сообщениям
Вы не можете скачивать файлы