Сын Божий / Son of God (Кристофер Спенсер / Christopher Spencer) [2014, США, Драма, история, HDRip] VO (qwerty)

 
Автор Сообщение

Создавать темы 14-Июл-2014 09:08

Сын Божий / Son of God- Страна: США
Жанр: Драма, история
Год выпуска: 2014
Продолжительность: 02:18:13-Перевод: Любительский (одноголосый закадровый) qwerty
Cубтитры: Нет-Режиссер: Кристофер Спенсер / Christopher Spencer
В ролях: Себастьян Кнапп, Пол Нопс, Дарси Линкольн, Дэвид Ринтул, Гари Оливер, Уильям Хьюстон, Стюарт Скудамор, Нонсо Анози, Конан Стивенс, Джасса Ахлувалиа, Лэнгли Кирквуд, Джо Коэн, Лейла Миммек, Эндрю Брук, Луиз Деламер, Диого Моргадо, Дауд Шах, Эмбер Роуз Рева, Мэттью Гравель, Пол Марк Дэвис, Фрайзер Эйрс, Адриан Шиллер, Пол Брайтвелл, Саймон Кунц, Рома Дауни, Дэниэл-Описание: История Иисуса Христа от Рождения, до Его учения, Распятия и Вознесения-Сэмпл: http://sendfile.su/986354-Качество видео: HDRip
Формат видео: AVI
Видео: XviD, 720x304, 23.976fps, 1866kbps
Аудио: AC3, 48000Hz, 6ch, 384kbps

MediaInfo

Complete name : D:\3.Торренты\Syn.Bozhyj.2014.HDRip.avi
Format : AVI
Format/Info : Audio Video Interleave
Format profile : OpenDML
File size : 2.18 GiB
Duration : 2h 18mn
Overall bit rate : 2 261 Kbps
Writing application : VirtualDubMod 1.5.10.2 (build 2540/release)
Writing library : VirtualDub build 34703/release
Video
ID : 0
Format : MPEG-4 Visual
Format profile : Advanced Simple@L5
Format settings, BVOP : Yes
Format settings, QPel : No
Format settings, GMC : No warppoints
Format settings, Matrix : Default (MPEG)
Codec ID : XVID
Codec ID/Hint : XviD
Duration : 2h 18mn
Bit rate : 1 866 Kbps
Width : 720 pixels
Height : 304 pixels
Display aspect ratio : 2.35:1
Frame rate : 23.976 fps
Color space : YUV
Chroma subsampling : 4:2:0
Bit depth : 8 bits
Scan type : Progressive
Compression mode : Lossy
Bits/(Pixel*Frame) : 0.355
Stream size : 1.80 GiB (83%)
Writing library : XviD 1.2.1 (UTC 2008-12-04)
Audio
ID : 1
Format : AC-3
Format/Info : Audio Coding 3
Mode extension : CM (complete main)
Format settings, Endianness : Big
Codec ID : 2000
Duration : 2h 18mn
Bit rate mode : Constant
Bit rate : 384 Kbps
Channel(s) : 6 channels
Channel positions : Front: L C R, Side: L R, LFE
Sampling rate : 48.0 KHz
Bit depth : 16 bits
Compression mode : Lossy
Stream size : 380 MiB (17%)
Alignment : Aligned on interleaves
Interleave, duration : 42 ms (1.00 video frame)
Interleave, preload duration : 512 ms

Скриншот c названием фильма

Знаете ли вы, что...">

Скриншоты Знаете ли вы, что...


Из фильма были вырезаны эпизоды с сатаной, похожим на президента США: Барака Обаму
 
Кто просматривает тему:

Показать сообщения:    

Текущее время: Сегодня 17:38

Часовой пояс: GMT



Вы не можете начинать темы
Вы не можете отвечать на сообщения
Вы не можете редактировать свои сообщения
Вы не можете удалять свои сообщения
Вы не можете голосовать в опросах
Вы не можете прикреплять файлы к сообщениям
Вы не можете скачивать файлы