Счастье – это... (Артём Прохоров, Леонид Залесский, Анна Яновская) [2015, семейный, мелодрама, WEB-DLRip]

 
Автор Сообщение

AleksSin ®

Пол:

Стаж: 6 лет

Сообщений: 218



Награды: 4 (Подробнее)

Mega Seeder 3 (Количество: 1) Mega Seeder 2 (Количество: 1) Mega Seeder 4 (Количество: 1)
Торрент-статистика

Создавать темы 28-Апр-2015 15:07

[Цитировать]

Счастье – это...«Мы все его ищем, каждый его достоин и его хватит на всех» Жанр: семейный, мелодрама
Год выпуска: 2015
Продолжительность: 01:38:16
Режиссёр: Артём Прохоров, Леонид Залесский, Анна Яновская
В ролях: Станислав Дужников, Борис Щербаков, Валерий Гаркалин, Андрей Мерзликин, Егор Бероев, Светлана Иванова, Павел Прилучный, Сергей Пускепалис, Сергей Лавыгин, Алина Бабак
Описание: В ленте собраны семь историй, каждая из которых имеет добрый финал и по-своему доказывает, что все достойны счастья.

Качество видео: WEB-DLRip (Исх. WEB-DL 720p)
Формат видео: AVI
Видео кодек: XviD
Аудио кодек: МР3
Видео: 688x288 (2.39:1), 25 fps, XviD build 73 ~923 kbps avg, 0.19 bit/pixel
Аудио: 48 kHz, MPEG Layer 3, 2 ch, ~128.00 kbps avg

MediaInfo

Общее
Полное имя : S:\Фильмы\Счастье – это... 2015. WEB-DLRip (AleksSin).avi
Формат : AVI
Формат/Информация : Audio Video Interleave
Размер файла : 745 Мбайт
Продолжительность : 1 ч. 38 м.
Общий поток : 1061 Кбит/сек
Программа кодирования : VirtualDubMod 1.5.10.3 | www.virtualdub-fr.org || (build 2550/release)
Библиотека кодирования : VirtualDubMod build 2550/release
Видео
Идентификатор : 0
Формат : MPEG-4 Visual
Профиль формата : Advanced Simple@L5
Параметр BVOP формата : 1
Параметр QPel формата : Нет
Параметр GMC формата : Без точки перехода
Параметр матрицы формата : Выборочная
Идентификатор кодека : XVID
Идентификатор кодека/Подсказка : XviD
Продолжительность : 1 ч. 38 м.
Битрейт : 923 Кбит/сек
Ширина : 688 пикс.
Высота : 288 пикс.
Соотношение сторон : 2,40:1
Частота кадров : 25,000 кадр/сек
Цветовое пространство : YUV
Подвыборка цветности : 4:2:0
Битовая глубина : 8 бит
Тип развёртки : Прогрессивная
Метод сжатия : С потерями
Бит/(Пиксели*Кадры) : 0.186
Размер потока : 649 Мбайт (87%)
Библиотека кодирования : XviD 73
Аудио
Идентификатор : 1
Формат : MPEG Audio
Версия формата : Version 1
Профиль формата : Layer 3
Идентификатор кодека : 55
Идентификатор кодека/Подсказка : MP3
Продолжительность : 1 ч. 38 м.
Вид битрейта : Постоянный
Битрейт : 128 Кбит/сек
Каналы : 2 канала
Частота : 48,0 КГц
Метод сжатия : С потерями
Размер потока : 90,0 Мбайт (12%)
Выравнивание : Соединение по промежуткам
Продолжительность промежутка : 40 мс. (1,00 видеокадр)
Время предзагрузки промежутка : 504 ms
Библиотека кодирования : LAME3.99r
Настройки программы : -m s -V 4 -q 2 -lowpass 17 -b 128

Скриншоты

[Профиль] [ЛС]
Показать сообщения:    

Текущее время: Сегодня 20:33

Часовой пояс: GMT



Вы не можете начинать темы
Вы не можете отвечать на сообщения
Вы не можете редактировать свои сообщения
Вы не можете удалять свои сообщения
Вы не можете голосовать в опросах
Вы не можете прикреплять файлы к сообщениям
Вы не можете скачивать файлы