Счастье – это... (2015) WEB-DL [1080p]

 
Автор Сообщение

достали все ®

Пол:

Стаж: 1 год 8 месяцев

Сообщений: 6545



Награды: 12 (Подробнее)

Mega Releaser 3 (Количество: 1) Mega Releaser 2 (Количество: 1) Mega Releaser 1 (Количество: 1)
Торрент-статистика

Создавать темы 28-Апр-2015 10:09

[Цитировать]

-Счастье – это... (2015) WEB-DL [1080p]- Производство: Россия
Жанр: Семейный, Мелодрама
Режиссер: Артём Прохоров, Леонид Залесский, Анна Яновская
Актеры: Станислав Дужников, Борис Щербаков, Валерий Гаркалин, Андрей Мерзликин, Егор Бероев, Светлана Иванова, Павел Прилучный, Сергей Пускепалис, Сергей Лавыгин, Алина Бабак
Описание:
В ленте собраны семь историй, каждая из которых имеет добрый финал и по-своему доказывает, что все достойны счастья.

Дата премьеры в РФ: 26 марта 2015, «WDSSPR»
Продолжительность: 01:38:16
Качество видео: WEB-DL 1080p
Перевод: Не требуется (русский) iTunes Russia
Субтитры: Отсутствуют
Видеокодек: MPEG-4 AVC/H.264
Битрейт видео: ~4396 kb/s
Размер кадра: 1916x802
Аудиокодек: AC3 5.1
Битрейт аудио: 384 kb/s
Сэмпл: Скачать

Mediainfo:

Общее
Уникальный идентификатор                 : 197268853416863657516177216279529804056 (0x946899647412B4E89E2B7F8C2AFA5118)
Полное имя                               :Sснastye.3to.2015.O.WEB-DL.1080p.nnm-club.mkv
Формат                                   : Matroska
Версия формата                           : Version 4 / Version 2
Размер файла                             : 3,35 Гбайт
Продолжительность                        : 1 ч. 38 м.
Общий поток                              : 4877 Кбит/сек
Дата кодирования                         : UTC 2015-04-27 20:39:49
Программа кодирования                    : mkvmerge v7.6.0 ('Garden of Dreams') 32bit built on Feb  8 2015 12:51:39
Библиотека кодирования                   : libebml v1.3.1 + libmatroska v1.4.2
DURATION                                 : 01:38:16.480000000
NUMBER_OF_FRAMES                         : 184265
NUMBER_OF_BYTES                          : 283031040
_STATISTICS_WRITING_APP                  : mkvmerge v7.6.0 ('Garden of Dreams') 32bit built on Feb  8 2015 12:51:39
_STATISTICS_WRITING_DATE_UTC             : 2015-04-27 20:39:49
_STATISTICS_TAGS                         : BPS DURATION NUMBER_OF_FRAMES NUMBER_OF_BYTES
Видео
Идентификатор                            : 1
Формат                                   : AVC
Формат/Информация                        : Advanced Video Codec
Профиль формата                          : [url=mailto:High@L4.0]High@L4.0[/url]
Параметр CABAC формата                   : Да
Параметр ReFrames формата                : 5 кадров
Идентификатор кодека                     : V_MPEG4/ISO/AVC
Продолжительность                        : 1 ч. 38 м.
Битрейт                                  : 4396 Кбит/сек
Ширина                                   : 1916 пикселей
Высота                                   : 802 пикселя
Соотношение сторон                       : 2,40:1
Режим частоты кадров                     : Постоянный
Частота кадров                           : 25,000 кадров/сек
Цветовое пространство                    : YUV
Субдискретизация насыщенности            : 4:2:0
Битовая глубина                          : 8 бит
Тип развёртки                            : Прогрессивная
Бит/(Пиксели*Кадры)                      : 0.114
Размер потока                            : 3,02 Гбайт (90%)
Язык                                     : English
Default                                  : Да
Forced                                   : Нет
Основные цвета                           : BT.709
Характеристики трансфера                 : BT.709
Коэффициенты матрицы                     : BT.709
colour_range                             : Limited
Аудио
Идентификатор                            : 2
Формат                                   : AC-3
Формат/Информация                        : Audio Coding 3
Расширение режима                        : CM (complete main)
Параметр Endianness формата              : Big
Идентификатор кодека                     : A_AC3
Продолжительность                        : 1 ч. 38 м.
Вид битрейта                             : Постоянный
Битрейт                                  : 384 Кбит/сек
Каналы                                   : 6 каналов
Расположение каналов                     : Front: L C R, Side: L R, LFE
Частота                                  : 48,0 КГц
Битовая глубина                          : 16 бит
Метод сжатия                             : С потерями
Размер потока                            : 270 Мбайт (8%)
Язык                                     : Russian
Default                                  : Да
Forced                                   : Нет
Меню
00:00:00.000                             : en:глава 1
00:01:36.000                             : en:глава 2
00:13:43.000                             : en:глава 3
00:26:23.000                             : en:глава 4
00:39:12.000                             : en:глава 5
00:53:26.000                             : en:глава 6
01:08:43.000                             : en:глава 7
01:19:18.000                             : en:глава 8
01:33:44.000                             : en:глава 9
Скриншоты:
[Профиль] [ЛС]
Показать сообщения:    

Текущее время: Сегодня 14:31

Часовой пояс: GMT



Вы не можете начинать темы
Вы не можете отвечать на сообщения
Вы не можете редактировать свои сообщения
Вы не можете удалять свои сообщения
Вы не можете голосовать в опросах
Вы не можете прикреплять файлы к сообщениям
Вы не можете скачивать файлы