Счастливый маршрут (Виктория Держицкая) [2013, мелодрама, HDTVRip 720p]

 
Автор Сообщение

reversefile ®

Пол:

Стаж: 4 года 5 месяцев

Сообщений: 842

Откуда: ReverseFile.org



Награды: Нет

Торрент-статистика

Создавать темы 13-Авг-2014 18:27

[Цитировать]

Счастливый маршрут
Выпущено: Россия, КК "Русское"
Жанр: мелодрама
Год выпуска: 2013
Продолжительность: 01:29:28
Субтитры: нет
Режиссер: Виктория Держицкая
В ролях: Глафира Тарханова, Петр Баранчеев, Кирилл Жандаров, Ольга Стрелецкая, Анна Шерлинг, Алиса Майорова, Максим Сапрыкин, Александр Чернявский, Ольга Сташкевич, Людмила Гаврилова, Александр Сайко, Елизавета Пащенко, Юлия Полынская, Михаил Тяжев, Анна Антоненко-Луконина, Андрей Сорокин, Светлана Потанина
Описание: Женя, простая и на редкость добрая девушка, живет в общежитии и работает водителем троллейбуса. Главное в жизни для нее – помогать людям. Она подменяет коллег на работе, бесплатно селит у себя бывшую учительницу и отдает едва знакомой девочке своё единственное платье. Подружки за глаза подшучивают над бессребреницей и уверены, что ей ничего в жизни не светит. Но Женя с неиссякаемым оптимизмом продолжает верить, что ее троллейбус едет по счастливому маршруту. И однажды в ее жизнь приходит чудо..

Автор рипа / записи: fanatus
Исходник: Запись с телеканала РОССИЯ HD
Качество: HDTVRip 720p
Формат: MKV
Видео кодек: H.264
Аудио кодек: AC3
Видео: MPEG-4 AVC, 3555 kbps , 1280x720 (16:9), 25.000 fps, 0.154 bit/pixel
Аудио: AC3, 2 ch, 48 kHz, 192 kbps

MediaInfo

General
Unique ID : 172797178266608829979439555514289445587 (0x81FF86A778F8367E866CB59E4FD55AD3)
Complete name : F:\Schastlivyj_marshrut.2013.x264.HDTVRip.720p.fanatus.mkv
Format : Matroska
Format version : Version 2
File size : 2.34 GiB
Duration : 1h 29mn
Overall bit rate : 3 748 Kbps
Movie name : Schastlivyj marshrut (2013) - fanatus
Encoded date : UTC 2014-05-04 06:40:11
Writing application : mkvmerge v3.4.0 ('Rapunzel') сборка от May 15 2010 09:38:20
Writing library : libebml v0.8.0 + libmatroska v0.9.0
Video
ID : 1
Format : AVC
Format/Info : Advanced Video Codec
Format profile : High@L4.1
Format settings, CABAC : Yes
Format settings, ReFrames : 8 frames
Codec ID : V_MPEG4/ISO/AVC
Duration : 1h 29mn
Bit rate : 3 555 Kbps
Width : 1 280 pixels
Height : 720 pixels
Display aspect ratio : 16:9
Frame rate : 25.000 fps
Color space : YUV
Chroma subsampling : 4:2:0
Bit depth : 8 bits
Scan type : Progressive
Bits/(Pixel*Frame) : 0.154
Stream size : 2.18 GiB (93%)
Title : Schastlivyj marshrut (2013) HDTVRip 720p
Writing library : x264 core 142 r2409 d6b4e63
Encoding settings : cabac=1 / ref=8 / deblock=1:-2:-2 / analyse=0x3:0x113 / me=umh / subme=10 / psy=1 / psy_rd=1.00:0.10 / mixed_ref=1 / me_range=32 / chroma_me=1 / trellis=2 / 8x8dct=1 / cqm=0 / deadzone=21,11 / fast_pskip=0 / chroma_qp_offset=-3 / threads=16 / lookahead_threads=2 / sliced_threads=0 / nr=0 / decimate=0 / interlaced=0 / bluray_compat=0 / constrained_intra=0 / bframes=9 / b_pyramid=2 / b_adapt=2 / b_bias=0 / direct=3 / weightb=1 / open_gop=0 / weightp=2 / keyint=250 / keyint_min=25 / scenecut=40 / intra_refresh=0 / rc=2pass / mbtree=0 / bitrate=3555 / ratetol=1.0 / qcomp=0.65 / qpmin=0 / qpmax=69 / qpstep=4 / cplxblur=20.0 / qblur=0.5 / ip_ratio=1.40 / pb_ratio=1.30 / aq=1:0.90
Language : Russian
Default : Yes
Forced : No
Audio
ID : 2
Format : AC-3
Format/Info : Audio Coding 3
Mode extension : CM (complete main)
Format settings, Endianness : Big
Codec ID : A_AC3
Duration : 1h 29mn
Bit rate mode : Constant
Bit rate : 192 Kbps
Channel(s) : 2 channels
Channel positions : Front: L R
Sampling rate : 48.0 KHz
Bit depth : 16 bits
Compression mode : Lossy
Stream size : 123 MiB (5%)
Language : Russian
Default : Yes
Forced : No

Скриншот c названием фильма

Скриншоты

[Профиль] [ЛС]
Показать сообщения:    

Текущее время: Сегодня 16:56

Часовой пояс: GMT



Вы не можете начинать темы
Вы не можете отвечать на сообщения
Вы не можете редактировать свои сообщения
Вы не можете удалять свои сообщения
Вы не можете голосовать в опросах
Вы не можете прикреплять файлы к сообщениям
Вы не можете скачивать файлы