Счастливый брак / A Good Marriage (2014) WEB-DL 720p

 
Автор Сообщение

sergej644 ®

Пол:

Стаж: 4 года 11 месяцев

Сообщений: 6041

Откуда: Soviet Union



Награды: Нет

Торрент-статистика

Создавать темы 10-Фев-2015 10:26

[Цитировать]

Информация о фильме
Название: Счастливый брак
Оригинальное название: A Good Marriage
Год выхода: 2014
Жанр: триллер
Режиссер: Питер Эскин
В ролях: Джоан Аллен, Энтони ЛаПалья, Кристен Коннолли, Стивен Лэнг, Майк О’Мэлли, Уилл Роджерс, Тео Стокман, Брэйди Брайсон, Джейсон Е. Теста, Грегг Майклс
О фильме:
После 25 лет счастливого брака Дарси узнаёт зловещий секрет о своём муже. Как быть, если под угрозой не только семья, но и жизнь?
Дата мировой премьеры: 3 октября 2014

Страна: США
Студия: Reno Productions
Продолжительность: 01:41:33
Перевод: Любительское (одноголосое) [PashaUP]
Файл
Кодек: H264
Качество: WEB-DL [720p]
Видео: MPEG-4/H.264 AVC, 1280x530 (2.40:1), 23.976 fps, 4106 Kbps (0.252 bit/pixel)
Звук #1: AC-3, 48.0 KHz, 2 ch, 192 Kbps, CBR / Русский одноголосый, PashaUP
Звук #2: AC-3, 48.0 KHz, 6 ch, 384 Kbps, CBR / Оригинал
Субтитры: RUS, ENG / Вшитые, отключаемые
Навигация по главам: есть
Размер: 3.38Gb
Семпл

Скриншоты

Media Info

General
Unique ID : 254854622642527077074898309340093674147 (0xBFBB370514A843A4AED68E57F2BAF2A3)
Complete name : C:TempA.Good.Marriage.2014.WEB-DL.720p.RUS.L1.ENG.mkv
Format : Matroska
Format version : Version 4 / Version 2
File size : 3.39 GiB
Duration : 1h 41mn
Overall bit rate : 4 773 Kbps
Movie name : A Good Marriage (2014)
Encoded date : UTC 2014-10-07 02:32:01
Writing application : mkvmerge v6.1.0 ('Old Devil') built on Mar 4 2013 09:10:42
Writing library : libebml v1.3.0 + libmatroska v1.4.0
Video
ID : 1
Format : AVC
Format/Info : Advanced Video Codec
Format profile : Main@L3.1
Format settings, CABAC : No
Format settings, ReFrames : 2 frames
Codec ID : V_MPEG4/ISO/AVC
Duration : 1h 41mn
Bit rate : 4 102 Kbps
Width : 1 280 pixels
Height : 530 pixels
Display aspect ratio : 2.40:1
Frame rate mode : Constant
Frame rate : 23.976 fps
Color space : YUV
Chroma subsampling : 4:2:0
Bit depth : 8 bits
Scan type : Progressive
Bits/(Pixel*Frame) : 0.252
Stream size : 2.91 GiB (86%)
Title : A Good Marriage (2014) WEB-DL 720p [RUS L1, ENG]
Language : English
Default : Yes
Forced : No
Color primaries : BT.709
Transfer characteristics : BT.709
Matrix coefficients : BT.709
Audio #1
ID : 2
Format : AC-3
Format/Info : Audio Coding 3
Mode extension : CM (complete main)
Format settings, Endianness : Big
Codec ID : A_AC3
Duration : 1h 41mn
Bit rate mode : Constant
Bit rate : 192 Kbps
Channel(s) : 2 channels
Channel positions : Front: L R
Sampling rate : 48.0 KHz
Bit depth : 16 bits
Compression mode : Lossy
Stream size : 139 MiB (4%)
Language : Russian
Default : Yes
Forced : Yes
Audio #2
ID : 3
Format : AC-3
Format/Info : Audio Coding 3
Mode extension : CM (complete main)
Format settings, Endianness : Big
Codec ID : A_AC3
Duration : 1h 41mn
Bit rate mode : Constant
Bit rate : 384 Kbps
Channel(s) : 6 channels
Channel positions : Front: L C R, Side: L R, LFE
Sampling rate : 48.0 KHz
Bit depth : 16 bits
Compression mode : Lossy
Stream size : 279 MiB (8%)
Language : English
Default : No
Forced : No
Text #1
ID : 4
Format : UTF-8
Codec ID : S_TEXT/UTF8
Codec ID/Info : UTF-8 Plain Text
Language : Russian
Default : No
Forced : No
Text #2
ID : 5
Format : UTF-8
Codec ID : S_TEXT/UTF8
Codec ID/Info : UTF-8 Plain Text
Language : English
Default : No
Forced : No
Menu
00:00:00.000 : en:Title
00:06:26.000 : en:Back from the Party
00:11:44.000 : en:Darcy's Home Alone
00:16:59.000 : en:The Discovery
00:24:22.000 : en:Beadie's killings
00:31:15.000 : en:Bob Returns Early
00:35:41.000 : en:Having a Talk
00:43:59.000 : en:Returning to Normal
00:52:42.000 : en:Darcy's Plan
01:00:07.000 : en:The Wedding
01:06:36.000 : en:Doubled-Die Cent
01:12:49.000 : en:The Fall
01:19:09.000 : en:Holt's Questioning
01:28:58.000 : en:Visiting the Hospital
01:37:06.000 : en:Credits
[Профиль] [ЛС]
Показать сообщения:    

Текущее время: Сегодня 03:11

Часовой пояс: GMT



Вы не можете начинать темы
Вы не можете отвечать на сообщения
Вы не можете редактировать свои сообщения
Вы не можете удалять свои сообщения
Вы не можете голосовать в опросах
Вы не можете прикреплять файлы к сообщениям
Вы не можете скачивать файлы