Счастливое число Слевина / Lucky Number Slevin (Пол МакГиган / Paul McGuigan) [2006, Германия, США, детектив, BDRip] MVO (телеканал Россия)

 
Автор Сообщение

TorrentFilm ®

Пол:

Стаж: 2 года

Сообщений: 7741



Награды: Нет

Торрент-статистика

Создавать темы 20-Дек-2014 02:00

[Цитировать]

Счастливое число Слевина
Lucky Number Slevin

Страна: Германия, США
Жанр: детектив
Год выпуска: 2006
Продолжительность: 01:49:50-Перевод: Профессиональный (многоголосый закадровый) телеканал Россия
Текст читали: Александр Груздев, Сергей Быстрицкий, Андрей Градов, Людмила Шувалова-Cубтитры: нет
Оригинальная аудиодорожка: нет-Режиссер: Пол МакГиган / Paul McGuigan
В ролях: Джош Хартнетт, Брюс Уиллис, Люси Лью, Морган Фриман, Бен Кингсли, Стэнли Туччи, Дэнни Айелло, Роберт Форстер, Дориан Миссик, Майкл Рубенфильд, Питер Аутербридж, Кевин Чэмберлин-Описание: После крайне неудачного дня Слевин приезжает к своему другу Нику Фишеру. Его квартира оказывается открытой, а сам Ник куда–то пропал. Утром в квартиру вваливаются бандиты и принимают Слевина за Ника. Оказалось, что Ник задолжал двум конкурирующим криминальным авторитетам – Боссу и Раввину. Слевину приходится отчаянно лавировать, чтобы уцелеть, ведь помимо боссов мафии ему угрожают полиция и таинственный киллер. Однако со временем становится ясно, что это лишь вершина айсберга в этой запутанной истории-Доп. информация: Перевод на трекере появляется впервые
Качество: IPTV (телеканал Перец)
Имеются две вставки из дубляжа: 00:06:51 - 00:07:16 / 00:19:24 - 00:19:42 (сцены секса)
Исходник и синхронизация: mister55555-Сэмпл: минута54сек-Качество видео: BDRip (исходник спасибо HANSMER)
Формат видео: AVI
Видео: XVID, 720х304, 2,35:1, 23,976 кадров/сек, 1528 Кбит/сек
Аудио: AC-3, 48,0 КГц, 256 Кбит/сек, 2 канала (многоголосый Россия)

MediaInfo

Общее
Полное имя : D:\с диска Е\инет\Раздачи\Счастливое число Слевина.2006.Перец\Счастливое число Слевина.2006.Перец.avi
Формат : AVI
Формат/Информация : Audio Video Interleave
Размер файла : 1,38 Гбайт
Продолжительность : 1 ч. 49 м.
Общий поток : 1794 Кбит/сек
Дата записи : 17.11.2014
Программа кодирования : VirtualDubModRus 1.5.10.2 (build 2542/release)
Библиотека кодирования : VirtualDubMod build 2542/release
Правообладатель : mister55555
Примечание : Для torrentfilm.net
Видео
Идентификатор : 0
Формат : MPEG-4 Visual
Профиль формата : Advanced Simple@L5
Параметр BVOP формата : 1
Параметр QPel формата : Нет
Параметр GMC формата : Без точки перехода
Параметр матрицы формата : Выборочная
Идентификатор кодека : XVID
Идентификатор кодека/Подсказка : XviD
Продолжительность : 1 ч. 49 м.
Битрейт : 1528 Кбит/сек
Ширина : 720 пикселей
Высота : 304 пикселя
Соотношение сторон : 2,35:1
Частота кадров : 23,976 кадра/сек
Цветовое пространство : YUV
Субдискретизация насыщенности : 4:2:0
Битовая глубина : 8 бит
Тип развёртки : Прогрессивная
Метод сжатия : С потерями
Бит/(Пиксели*Кадры) : 0.291
Размер потока : 1,17 Гбайт (85%)
Заголовок : Счастливое число Слевина.2006.BDRip.т/к Перец
Библиотека кодирования : XviD 73
Аудио
Идентификатор : 1
Формат : AC-3
Формат/Информация : Audio Coding 3
Расширение режима : CM (complete main)
Параметр Endianness формата : Big
Идентификатор кодека : 2000
Продолжительность : 1 ч. 49 м.
Вид битрейта : Постоянный
Битрейт : 256 Кбит/сек
Каналы : 2 канала
Расположение каналов : Front: L R
Частота : 48,0 КГц
Битовая глубина : 16 бит
Метод сжатия : С потерями
Размер потока : 201 Мбайт (14%)
Выравнивание : Разделение по промежуткам
Продолжительность промежутка : 42 мс. (1,00 видеокадр)
Время предзагрузки промежутка : 500 мс.
Заголовок : многоголосый телеканал Перец

Скриншот c названием фильма

[Профиль] [ЛС]

Создавать темы 06-Авг-2015 22:54 (спустя 7 месяцев 17 дней)

Топик был перенесен из форума Фильмы до 2014 года в форум Фильмы до 2012 года
sergej644
 
Показать сообщения:    

Текущее время: Сегодня 10:32

Часовой пояс: GMT



Вы не можете начинать темы
Вы не можете отвечать на сообщения
Вы не можете редактировать свои сообщения
Вы не можете удалять свои сообщения
Вы не можете голосовать в опросах
Вы не можете прикреплять файлы к сообщениям
Вы не можете скачивать файлы