Счастлива до безумия / Sykt lykkelig (2010) BDRip 720p by msltel | P2

 
Автор Сообщение

sergej644 ®

Пол:

Стаж: 4 года 11 месяцев

Сообщений: 6043

Откуда: Soviet Union



Награды: Нет

Торрент-статистика

Создавать темы 13-Фев-2015 18:23

[Цитировать]

Год выпуска: 2010
Страна: Норвегия
Жанр: драма, комедия
Продолжительность: 01:28:17
Перевод: Профессиональный двухголосый
Субтитры: английские
Режиссёр: Энн Севитски
В ролях: Агнес Киттелсен, Йоахим Рафаелсен, Майбритт Саэренс, Хенрик Рафаелсен, Оскар Хернес Брандсё, Рам Шихаб Эбеди, Хейн Тотлэнд, Ханс Мартин Аустестад, Нильс Кристиан Фоссдаль, Хакон Расмуссен
Описание: Сигве и Элизабет переезжают в небольшой норвежский город, где их соседями будет тоже молодая семья: Эрик и Кая. На первый взгляд, в семьях всё благополучно, но очень скоро зрителю открываются проблемы отношений, и он оказывается вовлечённым в переплетения ситуаций, смешных и драматичных...

Качество: BDRip 720p
Формат: MKV
Видео кодек: H.264
Видео: 4883 Кбит/с, 1280x690, 23.976 кадра/с, 0.231 bpp
Аудио 1: русский, AC3, 192 kbps, 2 ch, 48 kHz [профессиональный двухголосый, студия NLS]
Аудио 2: норвежский, AC3, 448 kbps, 6 ch, 48 kHz [оригинал]
Имеются неименованные главы/чаптеры.

Награды

Сандэнс, 2011 год
Победитель (1):
Гран-при в категории «Драматический фильм» (Программа «Мировое кино»)

MediaInfo

Общее
Уникальный идентификатор : 210182706549268249103853609874790073484 (0x9E1FB7826774F8D1850509090A7CC48C)
Полное имя : D:VideoSchastliva do bezumija.2010.BDRip.720p.mkv
Формат : Matroska
Версия формата : Version 4 / Version 2
Размер файла : 3,48 Гбайт
Продолжительность : 1 ч. 28 м.
Общий поток : 5635 Кбит/сек
Дата кодирования : UTC 2015-02-12 12:38:02
Программа кодирования : mkvmerge v7.6.0 ('Garden of Dreams') 64bit built on Feb 8 2015 13:04:34
Библиотека кодирования : libebml v1.3.1 + libmatroska v1.4.2
DURATION : 01:26:40.236000000
NUMBER_OF_FRAMES : 632
NUMBER_OF_BYTES : 17397
_STATISTICS_WRITING_APP : mkvmerge v7.6.0 ('Garden of Dreams') 64bit built on Feb 8 2015 13:04:34
_STATISTICS_WRITING_DATE_UTC : 2015-02-12 12:38:02
_STATISTICS_TAGS : BPS DURATION NUMBER_OF_FRAMES NUMBER_OF_BYTES
Видео
Идентификатор : 1
Формат : AVC
Формат/Информация : Advanced Video Codec
Профиль формата : High@L4.1
Параметр CABAC формата : Да
Параметр ReFrames формата : 9 кадров
Идентификатор кодека : V_MPEG4/ISO/AVC
Продолжительность : 1 ч. 28 м.
Битрейт : 4883 Кбит/сек
Ширина : 1280 пикселей
Высота : 690 пикселей
Соотношение сторон : 1,85:1
Режим частоты кадров : Постоянный
Частота кадров : 23,976 кадра/сек
Цветовое пространство : YUV
Субдискретизация насыщенности : 4:2:0
Битовая глубина : 8 бит
Тип развёртки : Прогрессивная
Бит/(Пиксели*Кадры) : 0.231
Размер потока : 3,01 Гбайт (87%)
Заголовок : BDRip -- STarankov
Библиотека кодирования : x264 core 142 r2431 ac76440
Настройки программы : cabac=1 / ref=9 / deblock=1:-1:-1 / analyse=0x3:0x113 / me=umh / subme=10 / psy=1 / psy_rd=1.00:0.15 / mixed_ref=1 / me_range=32 / chroma_me=1 / trellis=2 / 8x8dct=1 / cqm=0 / deadzone=21,11 / fast_pskip=1 / chroma_qp_offset=-3 / threads=6 / lookahead_threads=1 / sliced_threads=0 / nr=0 / decimate=1 / interlaced=0 / bluray_compat=0 / constrained_intra=0 / bframes=8 / b_pyramid=2 / b_adapt=2 / b_bias=0 / direct=3 / weightb=1 / open_gop=0 / weightp=2 / keyint=230 / keyint_min=23 / scenecut=40 / intra_refresh=0 / rc_lookahead=40 / rc=crf / mbtree=0 / crf=18.0 / qcomp=0.60 / qpmin=0 / qpmax=69 / qpstep=4 / vbv_maxrate=40000 / vbv_bufsize=50000 / crf_max=0.0 / nal_hrd=none / filler=0 / ip_ratio=1.40 / pb_ratio=1.30 / aq=1:1.00
Язык : Norwegian
Default : Да
Forced : Нет
DURATION : 01:28:17.918000000
NUMBER_OF_FRAMES : 127023
NUMBER_OF_BYTES : 3306729165
_STATISTICS_WRITING_APP : mkvmerge v7.6.0 ('Garden of Dreams') 64bit built on Feb 8 2015 13:04:34
_STATISTICS_WRITING_DATE_UTC : 2015-02-12 12:38:02
_STATISTICS_TAGS : BPS DURATION NUMBER_OF_FRAMES NUMBER_OF_BYTES
Аудио #1
Идентификатор : 2
Формат : AC-3
Формат/Информация : Audio Coding 3
Расширение режима : CM (complete main)
Параметр Endianness формата : Big
Идентификатор кодека : A_AC3
Продолжительность : 1 ч. 28 м.
Вид битрейта : Постоянный
Битрейт : 192 Кбит/сек
Каналы : 2 канала
Расположение каналов : Front: L R
Частота : 48,0 КГц
Битовая глубина : 16 бит
Метод сжатия : С потерями
Размер потока : 121 Мбайт (3%)
Заголовок : DVO (студия NLS)
Язык : Russian
Default : Да
Forced : Нет
Аудио #2
Идентификатор : 3
Формат : AC-3
Формат/Информация : Audio Coding 3
Расширение режима : CM (complete main)
Параметр Endianness формата : Big
Идентификатор кодека : A_AC3
Продолжительность : 1 ч. 28 м.
Вид битрейта : Постоянный
Битрейт : 448 Кбит/сек
Каналы : 6 каналов
Расположение каналов : Front: L C R, Side: L R, LFE
Частота : 48,0 КГц
Битовая глубина : 16 бит
Метод сжатия : С потерями
Размер потока : 283 Мбайт (8%)
Заголовок : Original
Язык : Norwegian
Default : Нет
Forced : Нет
Текст
Идентификатор : 4
Формат : UTF-8
Идентификатор кодека : S_TEXT/UTF8
Идентификатор кодека/Информация : UTF-8 Plain Text
Заголовок : английский
Язык : English
Default : Нет
Forced : Нет
Меню
00:00:00.000 : :Chapter 01
00:07:28.614 : :Chapter 02
00:15:52.159 : :Chapter 03
00:22:38.607 : :Chapter 04
00:29:34.606 : :Chapter 05
00:39:58.103 : :Chapter 06
00:46:08.098 : :Chapter 07
00:51:22.829 : :Chapter 08
00:59:19.264 : :Chapter 09
01:08:21.930 : :Chapter 10
01:16:22.035 : :Chapter 11
01:25:44.264 : :Chapter 12
01:28:16.916 : :Chapter 13

Скриншоты


[Профиль] [ЛС]
Показать сообщения:    

Текущее время: Сегодня 14:44

Часовой пояс: GMT



Вы не можете начинать темы
Вы не можете отвечать на сообщения
Вы не можете редактировать свои сообщения
Вы не можете удалять свои сообщения
Вы не можете голосовать в опросах
Вы не можете прикреплять файлы к сообщениям
Вы не можете скачивать файлы