Суррогат / Surrogate (Тали Шалом-Эзер / Tali Shalom-Ezer) [2008, Израиль, драма, TVRip] Sub Rus, Heb + Original Heb

 
Автор Сообщение

TorrentFilm ®

Пол:

Стаж: 2 года

Сообщений: 7741



Награды: Нет

Торрент-статистика

Создавать темы 22-Сен-2015 00:08

[Цитировать]

Суррогат / Surrogate
Страна: Израиль
Жанр: драма
Год выпуска: 2008
Продолжительность: 00:56:00
Перевод: Субтитры
Cубтитры: русские (softsub), иврит (hardsub)
Оригинальная аудиодорожка: иврит
Режиссер: Тали Шалом-Эзер / Tali Shalom-Ezer
В ролях: Амир Вольф, Лана Эттингер, Розина Камбус, Йонатан Свирски, Лиат Глик, Лаша Шимшони
Описание: Илай, молодой человек, испытывающий проблемы в отношениях с женщинами, обратившись к врачу, получает суррогатную партнёршу для сексуальной терапии - молодую женщину 30 лет по имени Агарь.
Доп. информация: IMDb
В видео имеют место кратковременные, длительностью менее 1 секунды, исчезновения изображения.
Сэмпл: http://www.mediafire.com/watch/7fhha2o68t6hj00/Samp...ogate_-_2008.avi
Качество видео: TVRip
Формат видео: AVI
Видео: XviD 624х352 16:9 25 кадров/сек 973 Кбит/сек
Аудио: MP3 48 КГц 2 канала 115 Кбит/сек
Формат субтитров: softsub (ASS)

Образец субтитров

Dialogue: 0,0:01:08.56,0:01:12.04,Default,,0,0,0,,- Илай?\N- Да.
Dialogue: 0,0:01:12.97,0:01:17.70,Default,,0,0,0,,- Агарь. Очень приятно.\N- Привет.
Dialogue: 0,0:01:24.50,0:01:28.73,Default,,0,0,0,,Что вы будете пить?\NЧёрный, пожалуйста.
Dialogue: 0,0:01:28.74,0:01:33.74,Default,,0,0,0,,Наоборот, без кофеина,\Nи немного молока, отдельно.
Dialogue: 0,0:01:38.26,0:01:41.53,Default,,0,0,0,,Мне потребовалось полчаса,\Nчтобы найти стоянку. И вам?
Dialogue: 0,0:01:41.54,0:01:46.61,Default,,0,0,0,,Да, были пробки.\NОткуда вы?
Dialogue: 0,0:01:46.71,0:01:48.22,Default,,0,0,0,,Извините.
Dialogue: 0,0:01:51.74,0:01:56.74,Default,,0,0,0,,- О чём нам можно говорить?\N- Обо всём. Кроме личной информации.
Dialogue: 0,0:01:58.74,0:02:02.21,Default,,0,0,0,,- Вы боитесь, что я разоблачу вас?\N- Нет.
Dialogue: 0,0:02:02.22,0:02:05.89,Default,,0,0,0,,Вы боитесь, что я - какой-то психопат,\Nкоторый будет преследовать вас?
Dialogue: 0,0:02:05.90,0:02:10.90,Default,,0,0,0,,Я не боюсь вас.
Dialogue: 0,0:02:16.50,0:02:20.65,Default,,0,0,0,,- Можно сигарету?\N- Да. - Спасибо.
Dialogue: 0,0:02:20.66,0:02:25.66,Default,,0,0,0,,- В принципе, я бросила курить.\N- Когда?
Dialogue: 0,0:02:26.50,0:02:29.69,Default,,0,0,0,,Сегодня.
Dialogue: 0,0:02:29.72,0:02:31.69,Default,,0,0,0,,- Сколько вам лет?\N- 31.
Dialogue: 0,0:02:31.70,0:02:35.01,Default,,0,0,0,,Я думал, что вы старше меня.
Dialogue: 0,0:02:35.02,0:02:39.45,Default,,0,0,0,,Вы не выглядите старше.\NЯ просто думал, что...
Dialogue: 0,0:02:39.46,0:02:44.46,Default,,0,0,0,,Я был уверен,\Nчто суррогатные партнёры старше.
Dialogue: 0,0:02:46.82,0:02:49.57,Default,,0,0,0,,Я был в шоке вначале,\Nкогда пришёл к доктору Штайн,
Dialogue: 0,0:02:49.58,0:02:54.58,Default,,0,0,0,,потому что был уверен,\Nчто и она - суррогатный партнёр.

MediaInfo

Общее
Полное имя : Surrogate - 2008.avi
Формат : AVI
Формат/Информация : Audio Video Interleave
Размер файла : 441 Мбайт
Продолжительность : 56 м.
Режим общего битрейта : Переменный
Общий поток : 1100 Кбит/сек
Видео
Идентификатор : 0
Формат : MPEG-4 Visual
Профиль формата : Advanced Simple@L5
Параметр BVOP формата : 2
Параметр QPel формата : Нет
Параметр GMC формата : Без точки перехода
Параметр матрицы формата : Default (H.263)
Идентификатор кодека : XVID
Идентификатор кодека/Подсказка : XviD
Продолжительность : 56 м.
Битрейт : 973 Кбит/сек
Ширина : 624 пикселя
Высота : 352 пикселя
Соотношение сторон : 16:9
Частота кадров : 25,000 кадров/сек
Цветовое пространство : YUV
Субдискретизация насыщенности : 4:2:0
Битовая глубина : 8 бит
Тип развёртки : Прогрессивная
Метод сжатия : С потерями
Бит/(Пиксели*Кадры) : 0.177
Размер потока : 390 Мбайт (88%)
Библиотека кодирования : XviD 1.2.1 (UTC 2008-12-04)
Аудио
Идентификатор : 1
Формат : MPEG Audio
Версия формата : Version 1
Профиль формата : Layer 3
Режим : Joint stereo
Расширение режима : MS Stereo
Идентификатор кодека : 55
Идентификатор кодека/Подсказка : MP3
Продолжительность : 56 м.
Вид битрейта : Переменный
Битрейт : 115 Кбит/сек
Номинальный битрейт : 128 Кбит/сек
Каналы : 2 канала
Частота : 48,0 КГц
Метод сжатия : С потерями
Размер потока : 45,9 Мбайт (10%)
Выравнивание : Соединение по промежуткам
Продолжительность промежутка : 24 мс. (0,60 видеокадр)
Время предзагрузки промежутка : 224 мс.
Заголовок : 2015_3_13_8_38_19
Библиотека кодирования : LAME3.99r
Настройки программы : -m j -V 4 -q 2 -lowpass 17 --abr 128

Скриншот c названием фильма

Скриншоты

[Профиль] [ЛС]

Создавать темы 12-Июн-2016 08:50 (спустя 8 месяцев 20 дней)

Топик был перенесен из форума Фильмы 2011 года в форум Фильмы 2006-2008 года
Russian Mafia
 
Показать сообщения:    

Текущее время: Сегодня 12:46

Часовой пояс: GMT



Вы не можете начинать темы
Вы не можете отвечать на сообщения
Вы не можете редактировать свои сообщения
Вы не можете удалять свои сообщения
Вы не можете голосовать в опросах
Вы не можете прикреплять файлы к сообщениям
Вы не можете скачивать файлы