Суррогаты / Surrogates (Питер Берг / Peter Berg) [2009, фантастика, боевик, триллер, BDRip-AVC] Dub (CEE) + AVO (А.Гаврилов) + Original (Eng) + Subs (Rus, Ukr, Eng)

 
Автор Сообщение

painkiller ®

Стаж: 2 года 3 месяца

Сообщений: 582



Награды: Нет

Торрент-статистика

Создавать темы 14-Авг-2014 13:02

[Цитировать]

Суррогаты / Surrogates«Реален только ты»- Страна: США
Жанр: фантастика, боевик, триллер
Год выпуска: 2009
Продолжительность: 01:28:36-Перевод №1: Профессиональный (дублированный) - Blu-ray CEE
Перевод №2: Авторский (одноголосый, закадровый) - А.Гаврилов
Оригинальная аудиодорога: English
Cубтитры: Russian (forced+full+comment), Ukrainian (forced+full+comment), English (full+full SDH) - (*.srt)
Навигация по главам: отсутствует-Режиссер: Джонатан Мостоу / Jonathan Mostow
В ролях: Брюс Уиллис, Рада Митчел, Розамунд Пайк, Борис Коджо, Джеймс Джинти, Джеймс Кромуэлл, Винг Рэймс, Джек Ноузуорти, Девин Рэтрей, Майкл Кудиц.-Описание:
Действие разворачивается в будущем, в 2057 году, — когда люди практически перестанут общаться между собой и полностью возложат эту функцию на плечи роботов-заменителей. Они сильнее, моложе, привлекательнее своих обладателей и даже могут быть другого пола. Но находится террорист, начинающий уничтожать идеальных андроидов. Полицейскому Тому Гриру предстоит узнать, какие причины движут злоумышленником, лишающим жизни людей и их марионеток, технически и физически совершенных.
-
Download sample-Качество видео: BDRip-AVC | исх.
Формат видео: MKV-Видео: 1 152x480 (2.40:1), 23.976 fps, x264 ~3379 kbps avg, 0.248 bit/pixel
Аудио №1: 48 kHz, AC3, 3/2 (L,C,R,l,r) + LFE ch, ~448.00 kbps avg | Профессиональный (дублированный) - Blu-ray CEE
Аудио №2: 48 kHz, AC3, 3/2 (L,C,R,l,r) + LFE ch, ~448.00 kbps avg | Авторский (одноголосый, закадровый) - А.Гаврилов
Аудио №3: 48 kHz, AC3, 3/2 (L,C,R,l,r) + LFE ch, ~448.00 kbps avg | English-

MediaInfo

General
Unique ID : 214775187273586498013544074761754818555 (0xA194324A6D2C83679CFF78D03EFAB7FB)
Complete name : D:\Фильмы\Рипы\Surrogates.2009.BDRip-AVC.Fredd Kruger.mkv
Format : Matroska
Format version : Version 2
File size : 2.93 GiB
Duration : 1h 28mn
Overall bit rate : 4 726 Kbps
Movie name : Surrogates (2009) - Release for rutracker by Fredd Kruger
Encoded date : UTC 2014-04-01 07:04:30
Writing application : mkvmerge v5.0.1 ('Es ist Sommer') built on Nov 6 2011 16:23:40
Writing library : libebml v1.2.2 + libmatroska v1.3.0
Attachment : Yes
Video
ID : 1
Format : AVC
Format/Info : Advanced Video Codec
Format profile : High@L4.1
Format settings, CABAC : Yes
Format settings, ReFrames : 15 frames
Codec ID : V_MPEG4/ISO/AVC
Duration : 1h 28mn
Bit rate : 3 288 Kbps
Width : 1 152 pixels
Height : 480 pixels
Display aspect ratio : 2.40:1
Frame rate mode : Constant
Frame rate : 23.976 fps
Color space : YUV
Chroma subsampling : 4:2:0
Bit depth : 8 bits
Scan type : Progressive
Bits/(Pixel*Frame) : 0.248
Stream size : 2.04 GiB (70%)
Title : Encode Fredd Kruger
Writing library : x264 core 142 r2409kMod d6b4e63
Encoding settings : cabac=1 / ref=15 / deblock=1:-3:-3 / analyse=0x3:0x133 / me=umh / subme=11 / psy=1 / fade_compensate=0.00 / psy_rd=1.00:0.00 / mixed_ref=1 / me_range=48 / chroma_me=1 / trellis=2 / 8x8dct=1 / cqm=0 / deadzone=21,11 / fast_pskip=1 / chroma_qp_offset=-2 / threads=12 / lookahead_threads=3 / sliced_threads=0 / nr=0 / decimate=1 / interlaced=0 / bluray_compat=0 / constrained_intra=0 / fgo=0 / bframes=15 / b_pyramid=2 / b_adapt=2 / b_bias=0 / direct=3 / weightb=1 / open_gop=0 / weightp=2 / keyint=250 / keyint_min=23 / scenecut=40 / intra_refresh=0 / rc_lookahead=60 / rc=crf / mbtree=0 / crf=18.9000 / qcomp=0.65 / qpmin=0 / qpmax=69 / qpstep=4 / vbv_maxrate=50000 / vbv_bufsize=62500 / crf_max=0.0 / nal_hrd=none / filler=0 / ip_ratio=1.30 / pb_ratio=1.20 / aq=3:0.75 / zones=120895,127463,q=30
Default : Yes
Forced : No
Color primaries : BT.709
Transfer characteristics : BT.709
Matrix coefficients : BT.709
Audio #1
ID : 2
Format : AC-3
Format/Info : Audio Coding 3
Mode extension : CM (complete main)
Format settings, Endianness : Big
Codec ID : A_AC3
Duration : 1h 28mn
Bit rate mode : Constant
Bit rate : 448 Kbps
Channel count : 6 channels
Channel positions : Front: L C R, Side: L R, LFE
Sampling rate : 48.0 KHz
Bit depth : 16 bits
Compression mode : Lossy
Stream size : 284 MiB (9%)
Title : Dub (CEE)
Language : Russian
Default : Yes
Forced : No
Audio #2
ID : 3
Format : AC-3
Format/Info : Audio Coding 3
Mode extension : CM (complete main)
Format settings, Endianness : Big
Codec ID : A_AC3
Duration : 1h 28mn
Bit rate mode : Constant
Bit rate : 448 Kbps
Channel count : 6 channels
Channel positions : Front: L C R, Side: L R, LFE
Sampling rate : 48.0 KHz
Bit depth : 16 bits
Compression mode : Lossy
Stream size : 284 MiB (9%)
Title : AVO (А.Гаврилов)
Language : Russian
Default : No
Forced : No
Audio #3
ID : 4
Format : AC-3
Format/Info : Audio Coding 3
Mode extension : CM (complete main)
Format settings, Endianness : Big
Codec ID : A_AC3
Duration : 1h 28mn
Bit rate mode : Constant
Bit rate : 448 Kbps
Channel count : 6 channels
Channel positions : Front: L C R, Side: L R, LFE
Sampling rate : 48.0 KHz
Bit depth : 16 bits
Compression mode : Lossy
Stream size : 284 MiB (9%)
Language : English
Default : No
Forced : No
Text #1
ID : 5
Format : UTF-8
Codec ID : S_TEXT/UTF8
Codec ID/Info : UTF-8 Plain Text
Title : forced
Language : Russian
Default : Yes
Forced : No
Text #2
ID : 6
Format : UTF-8
Codec ID : S_TEXT/UTF8
Codec ID/Info : UTF-8 Plain Text
Title : full
Language : Russian
Default : No
Forced : No
Text #3
ID : 7
Format : UTF-8
Codec ID : S_TEXT/UTF8
Codec ID/Info : UTF-8 Plain Text
Title : comment
Language : Russian
Default : No
Forced : No
Text #4
ID : 8
Format : UTF-8
Codec ID : S_TEXT/UTF8
Codec ID/Info : UTF-8 Plain Text
Title : forced
Language : Ukrainian
Default : No
Forced : No
Text #5
ID : 9
Format : UTF-8
Codec ID : S_TEXT/UTF8
Codec ID/Info : UTF-8 Plain Text
Title : full
Language : Ukrainian
Default : No
Forced : No
Text #6
ID : 10
Format : UTF-8
Codec ID : S_TEXT/UTF8
Codec ID/Info : UTF-8 Plain Text
Title : comment
Language : Ukrainian
Default : No
Forced : No
Text #7
ID : 11
Format : UTF-8
Codec ID : S_TEXT/UTF8
Codec ID/Info : UTF-8 Plain Text
Title : full
Language : English
Default : No
Forced : No
Text #8
ID : 12
Format : UTF-8
Codec ID : S_TEXT/UTF8
Codec ID/Info : UTF-8 Plain Text
Title : full SDH
Language : English
Default : No
Forced : No

x264 log

x264 [info]: frame I:1160 Avg QP:18.26 size: 88808 PSNR Mean Y:44.99 U:48.18 V:48.24 Avg:45.58 Global:44.82
x264 [info]: frame P:28368 Avg QP:19.45 size: 30600 PSNR Mean Y:43.63 U:49.45 V:49.42 Avg:44.38 Global:43.37
x264 [info]: frame B:97936 Avg QP:20.28 size: 13011 PSNR Mean Y:43.18 U:48.73 V:48.73 Avg:43.96 Global:42.86
x264 [info]: consecutive B-frames: 2.7% 4.2% 9.0% 17.0% 15.6% 38.5% 6.1% 2.2% 1.3% 1.0% 0.9% 0.4% 0.3% 0.3% 0.1% 0.3%
x264 [info]: mb I I16..4: 5.2% 74.2% 20.6%
x264 [info]: mb P I16..4: 0.5% 11.7% 1.3% P16..4: 26.2% 31.2% 13.9% 2.2% 0.2% skip:12.8%
x264 [info]: mb B I16..4: 0.1% 1.8% 0.1% B16..8: 33.3% 19.7% 4.2% direct: 6.1% skip:34.7% L0:42.7% L1:43.5% BI:13.7%
x264 [info]: 8x8 transform intra:85.8% inter:58.8%
x264 [info]: direct mvs spatial:99.8% temporal:0.2%
x264 [info]: coded y,uvDC,uvAC intra: 89.3% 84.2% 67.9% inter: 30.0% 24.6% 8.4%
x264 [info]: i16 v,h,dc,p: 28% 24% 8% 40%
x264 [info]: i8 v,h,dc,ddl,ddr,vr,hd,vl,hu: 8% 8% 10% 10% 14% 13% 14% 11% 13%
x264 [info]: i4 v,h,dc,ddl,ddr,vr,hd,vl,hu: 12% 11% 8% 8% 14% 12% 13% 10% 13%
x264 [info]: i8c dc,h,v,p: 42% 21% 16% 20%
x264 [info]: Weighted P-Frames: Y:4.4% UV:3.0%
x264 [info]: ref P L0: 46.0% 11.2% 18.2% 5.7% 4.9% 3.1% 2.9% 1.4% 1.4% 1.0% 1.0% 0.8% 0.8% 0.6% 0.7% 0.1%
x264 [info]: ref B L0: 70.3% 12.7% 5.6% 3.0% 2.0% 1.7% 1.3% 0.8% 0.6% 0.6% 0.5% 0.4% 0.2% 0.1%
x264 [info]: ref B L1: 91.6% 8.4%
x264 [info]: SSIM Mean Y:0.9762478 (16.243db)
x264 [info]: PSNR Mean Y:43.295 U:48.885 V:48.880 Avg:44.064 Global:42.982 kb/s:3378.72
x264 [total]: encoded 127464 frames, 10.40 fps, 3378.72 kb/s

Comparison

Source

Encode
--
[Профиль] [ЛС]

Создавать темы 06-Авг-2015 23:13 (спустя 11 месяцев 23 дня)

Топик был перенесен из форума Фильмы до 2014 года в форум Фильмы до 2012 года
sergej644
 

Создавать темы 12-Июн-2016 08:48 (спустя 1 год 9 месяцев)

Топик был перенесен из форума Фильмы 2011 года в форум Фильмы 2009 года
Russian Mafia
 
Показать сообщения:    

Текущее время: Сегодня 05:19

Часовой пояс: GMT



Вы не можете начинать темы
Вы не можете отвечать на сообщения
Вы не можете редактировать свои сообщения
Вы не можете удалять свои сообщения
Вы не можете голосовать в опросах
Вы не можете прикреплять файлы к сообщениям
Вы не можете скачивать файлы