Супер 8 / Super 8 (Джей Джей Абрамс) [2011 г., Фантастика, триллер, детектив, HDRip] Лицензия [BD CEE]

 
Автор Сообщение

Шкипер ®

Пол:

Стаж: 1 год 7 месяцев

Сообщений: 52



Награды: Нет

Торрент-статистика

Создавать темы 12-Апр-2015 09:48

[Цитировать]

Супер 8
Super 8
Год выпуска: 2011
Страна: США (Amblin Entertainment, Bad Robot)
Жанр: Фантастика, триллер, детектив
Продолжительность: 01:50:44
Перевод: Профессиональный (полное дублирование) Лицензия [BD CEE]
Режиссер: Джей Джей Абрамс
В ролях: Джоэл Кортни, Эль Фаннинг, Джессика Так, Джоэль МакКиннон Миллер, Райан Ли, Зак Миллс, Райли Гриффитс, Гэбриел Бассо, Кайл Чандлер, Рон Элдард
Роли дублировали: Дмитрий Ивлиев, Екатерина Буреничева, Ефим Клиновский, Давид Алексеев, Кирилл Продолятченко
Описание: Летом 1979 года несколько друзей из маленького городка, снимающие любительский фильм на камеру «Супер 8», стали свидетелями железнодорожной катастрофы. И вскоре они начинают подозревать, что это не было просто несчастным случаем. Странные исчезновения и необъяснимые события начинают происходить в городке, и местный шериф пытается разгадать их тайну — что-то куда более ужасающее, чем все могли себе представить.
Доп. информация: Скачать сэмпл
Рип от:
Качество: HDRip исходник BDRip 720p
Формат: AVI
Видео кодек: XviD
Аудио кодек: MP3
Видео: 608x256 (2.38:1), 23.976 fps, XviD build 73 ~804 kbps avg, 0.22 bit/pixel
Аудио: 48 kHz, MPEG Layer 3, 2 ch, ~128.00 kbps avg

MI

General
Complete name : D:ТоррентМои рипыСупер 8Super 8.2011.HDRip by Шкипер.avi
Format : AVI
Format/Info : Audio Video Interleave
File size : 746 MiB
Duration : 1h 50mn
Overall bit rate : 942 Kbps
Writing application : VirtualDubMod 1.5.10.3 | www.virtualdub-fr.org || (build 2550/release)
Writing library : VirtualDubMod build 2550/release
Video
ID : 0
Format : MPEG-4 Visual
Format profile : Advanced Simple@L5
Format settings, BVOP : 1
Format settings, QPel : No
Format settings, GMC : No warppoints
Format settings, Matrix : Default (MPEG)
Codec ID : XVID
Codec ID/Hint : XviD
Duration : 1h 50mn
Bit rate : 805 Kbps
Width : 608 pixels
Height : 256 pixels
Display aspect ratio : 2.40:1
Frame rate : 23.976 fps
Color space : YUV
Chroma subsampling : 4:2:0
Bit depth : 8 bits
Scan type : Progressive
Compression mode : Lossy
Bits/(Pixel*Frame) : 0.216
Stream size : 637 MiB (85%)
Writing library : XviD 73
Audio
ID : 1
Format : MPEG Audio
Format version : Version 1
Format profile : Layer 3
Mode : Joint stereo
Mode extension : MS Stereo
Codec ID : 55
Codec ID/Hint : MP3
Duration : 1h 50mn
Bit rate mode : Constant
Bit rate : 128 Kbps
Channel(s) : 2 channels
Sampling rate : 48.0 KHz
Compression mode : Lossy
Stream size : 101 MiB (14%)
Alignment : Aligned on interleaves
Interleave, duration : 42 ms (1.00 video frame)
Interleave, preload duratio : 504 ms
Writing library : LAME3.99r
Encoding settings : -m j -V 4 -q 2 -lowpass 17 -b 128

Скриншоты

[Профиль] [ЛС]

Создавать темы 06-Авг-2015 22:37 (спустя 3 месяца 24 дня)

Топик был перенесен из форума Фильмы до 2014 года в форум Фильмы до 2012 года
sergej644
 
Показать сообщения:    

Текущее время: Сегодня 06:24

Часовой пояс: GMT



Вы не можете начинать темы
Вы не можете отвечать на сообщения
Вы не можете редактировать свои сообщения
Вы не можете удалять свои сообщения
Вы не можете голосовать в опросах
Вы не можете прикреплять файлы к сообщениям
Вы не можете скачивать файлы