Суперсемейка / The Incredibles (2004) BDRip [720p]

 
Автор Сообщение

sergej644 ®

Пол:

Стаж: 4 года 11 месяцев

Сообщений: 6045

Откуда: Soviet Union



Награды: Нет

Торрент-статистика

Создавать темы 19-Июл-2014 14:59

[Цитировать]

-Суперсемейка / The Incredibles (2004) BDRip- Год выпуска: 2004
Производство: США / Walt Disney Pictures
Жанр: Мультфильм, Боевик, Приключения, Семейный
Описание:
История семьи супергероев, члены которой уже отошли от больших дел и предпочитают жить непримечательной жизнью обычных землян. В прошлом все они обладали суперспособностями и относительно легко справлялись с мировым злом.
Но в один прекрасный день папаше и его домочадцам приходится вновь облачиться в костюмы супергероев (а для этого нужно срочно сбросить лишние килограммы!) и в очередной раз спасти человечество от таинственного злодея…
Режиссер: Брэд Бёрд
Персонажи: Крэйг Т. Нельсон, Холли Хантер, Сэмюэл Л. Джексон, Джейсон Ли, Доминик Луис, Тедди Ньютон, Жан Синсере, Эли Фучиле
Продолжительность: 01:55:25
Качество видео: BDRip 720p
Перевод: Дублированный

Видеокодек: MPEG-4 AVC/H.264
Битрейт видео: ~3000 Кбит/сек
Размер кадра: 1282x534
Аудиокодек: AC3 5.1
Битрейт аудио: 384 Кбит/сек

MediaInfo:

Общее
Уникальный идентификатор                 : 206843658053317667898970045851629092509 (0x9B9CA3B54C744DEFA9898C0F1ED97E9D)
Формат                                   : Matroska
Версия формата                           : Version 4 / Version 2
Размер файла                             : 2,73 Гбайт
Продолжительность                        : 1 ч. 55 м.
Общий поток                              : 3385 Кбит/сек
Дата кодирования                         : UTC 2014-07-17 08:29:02
Программа кодирования                    : mkvmerge v6.9.1 ('Blue Panther') 64bit built on Apr 18 2014 18:23:38
Библиотека кодирования                   : libebml v1.3.0 + libmatroska v1.4.1
Видео
Идентификатор                            : 1
Формат                                   : AVC
Формат/Информация                        : Advanced Video Codec
Профиль формата                          : [url=mailto:High@L4.1]High@L4.1[/url]
Параметр CABAC формата                   : Да
Параметр ReFrames формата                : 9 кадров
Идентификатор кодека                     : V_MPEG4/ISO/AVC
Продолжительность                        : 1 ч. 55 м.
Битрейт                                  : 3000 Кбит/сек
Ширина                                   : 1282 пикселей
Высота                                   : 534 пикселя
Соотношение сторон                       : 2,40:1
Соотношение сторон в оригинале           : 2,40:1
Режим частоты кадров                     : Постоянный
Частота кадров                           : 23,976 кадра/сек
Цветовое пространство                    : YUV
Субдискретизация насыщенности            : 4:2:0
Битовая глубина                          : 8 бит
Тип развёртки                            : Прогрессивная
Бит/(Пиксели*Кадры)                      : 0.183
Размер потока                            : 2,37 Гбайт (87%)
Библиотека кодирования                   : x264 core 142 r2409kMod d6b4e63
Настройки программы                      : cabac=1 / ref=9 / deblock=1:0:0 / analyse=0x3:0x133 / me=umh / subme=10 / psy=1 / fade_compensate=0.00 / psy_rd=1.00:0.00 / mixed_ref=1 / me_range=32 / chroma_me=1 / trellis=2 / 8x8dct=1 / cqm=0 / deadzone=21,11 / fast_pskip=0 / chroma_qp_offset=-2 / threads=2 / lookahead_threads=1 / sliced_threads=0 / nr=0 / decimate=1 / interlaced=0 / bluray_compat=0 / constrained_intra=0 / fgo=0 / bframes=5 / b_pyramid=2 / b_adapt=1 / b_bias=0 / direct=3 / weightb=1 / open_gop=0 / weightp=2 / keyint=250 / keyint_min=25 / scenecut=40 / intra_refresh=0 / rc_lookahead=60 / rc=2pass / mbtree=1 / bitrate=3000 / ratetol=1.0 / qcomp=0.60 / qpmin=0 / qpmax=69 / qpstep=4 / cplxblur=20.0 / qblur=0.5 / ip_ratio=1.40 / aq=1:1.00
Default                                  : Да
Forced                                   : Нет
Аудио
Идентификатор                            : 2
Формат                                   : AC-3
Формат/Информация                        : Audio Coding 3
Расширение режима                        : CM (complete main)
Параметр Endianness формата              : Big
Идентификатор кодека                     : A_AC3
Продолжительность                        : 1 ч. 55 м.
Вид битрейта                             : Постоянный
Битрейт                                  : 384 Кбит/сек
Каналы                                   : 6 каналов
Расположение каналов                     : Front: L C R, Side: L R, LFE
Частота                                  : 48,0 КГц
Битовая глубина                          : 16 бит
Метод сжатия                             : С потерями
Размер потока                            : 317 Мбайт (11%)
Заголовок                                : Dubbing
Язык                                     : Russian
Default                                  : Да
Forced                                   : Нет
Меню
00:00:00.000                             : en:00:00:00.000
00:09:14.554                             : en:00:09:14.554
00:11:32.734                             : en:00:11:32.734
00:13:31.352                             : en:00:13:31.352
00:17:08.527                             : en:00:17:08.527
00:20:44.910                             : en:00:20:44.910
00:26:53.529                             : en:00:26:53.529
00:30:42.215                             : en:00:30:42.215
00:34:54.592                             : en:00:34:54.592
00:41:27.235                             : en:00:41:27.235
00:46:01.675                             : en:00:46:01.675
00:48:54.515                             : en:00:48:54.515
00:50:02.124                             : en:00:50:02.124
00:54:01.780                             : en:00:54:01.780
00:57:09.551                             : en:00:57:09.551
01:00:35.799                             : en:01:00:35.799
01:05:04.859                             : en:01:05:04.859
01:10:53.708                             : en:01:10:53.708
01:12:57.915                             : en:01:12:57.915
01:16:27.583                             : en:01:16:27.583
01:19:19.213                             : en:01:19:19.213
01:21:13.911                             : en:01:21:13.911
01:23:59.659                             : en:01:23:59.659
01:27:05.637                             : en:01:27:05.637
01:30:29.841                             : en:01:30:29.841
01:32:47.395                             : en:01:32:47.395
01:33:33.024                             : en:01:33:33.024
01:34:30.540                             : en:01:34:30.540
01:37:03.151                             : en:01:37:03.151
01:41:58.070                             : en:01:41:58.070
01:45:40.000                             : en:01:45:40.000
01:47:33.322                             : en:01:47:33.322
Скриншоты:
Время раздачи: 10:00-24:00
[Профиль] [ЛС]
Показать сообщения:    

Текущее время: Сегодня 06:07

Часовой пояс: GMT



Вы не можете начинать темы
Вы не можете отвечать на сообщения
Вы не можете редактировать свои сообщения
Вы не можете удалять свои сообщения
Вы не можете голосовать в опросах
Вы не можете прикреплять файлы к сообщениям
Вы не можете скачивать файлы