Супермен / Superman (1978) BDRip 1080p от NNNB | P

 
Автор Сообщение

sergej644 ®

Пол:

Стаж: 4 года 11 месяцев

Сообщений: 6045

Откуда: Soviet Union



Награды: Нет

Торрент-статистика

Создавать темы 11-Ноя-2014 11:20

[Цитировать]

- Информация о фильме
Русское название: Супермен
Оригинальное название: Superman
Год выхода: 1978
Жанр: фантастика, фэнтези, боевик
Режиссер: Ричард Доннер
Выпущено: США
Продолжительность: 02:31:25
Перевод: Профессиональный (Многоголосый закадровый)
В ролях: Марлон Брандо, Джин Хэкмен, Кристофер Рив, Нед Битти, Джекки Купер, Гленн Форд, Тревор Ховард, Марго Киддер, Джек О’Хэллоран, Валери Перрайн-Сюжет фильма
Цивилизация планеты Криптон стоит на грани гибели. Ученый Джор-Эл, чтобы спасти своему ребенку жизнь, отправляет его на Землю. Маленький мальчик вырастает и открывает в себе неземные возможности. Он — Супермен!
Огромная сила и способность летать помогают ему в борьбе с любыми проявлениями зла. И когда коварный злодей Лекс Лютор строит зловещие планы, угрожающие всему человечеству, только Супермен может помешать ему…-Файл
Качество: BDRip 1080p (исходник Blu-ray Disc Remux)
Видео: 1918x794, 9891 Кбит/сек, 23,976 кадр/сек, AVC, x264, High@L4.1, 2.40:1, 0.271 Бит/[Пиксели*Кадры]
Аудио 1: AC-3, 384 Кбит/сек, 6 канала(ов), 48,0 КГц - Многоголосый закадровый / Русский
Аудио 2: AC-3, 640 Кбит/сек, 6 канала(ов), 48,0 КГц - Оригинал / Английский
Субтитры: Русские | Полные, Английские | Полные
Форсированные субтитры: Нет
Чаптеры (Главы): Есть--

MediaInfo

Format : Matroska
Format version : Version 2
File size : 11.5 GiB
Duration : 2h 31mn
Overall bit rate : 10.9 Mbps
Movie name : Супермен.(1978).BDRip.1080p.[envy]
Encoded date : UTC 2014-11-10 15:27:53
Writing application : mkvmerge v5.8.0 ('No Sleep / Pillow') built on Sep 2 2012 15:37:04
Writing library : libebml v1.2.3 + libmatroska v1.3.0
Video
ID : 1
Format : AVC
Format/Info : Advanced Video Codec
Format profile : High@L4.1
Format settings, CABAC : Yes
Format settings, ReFrames : 5 frames
Codec ID : V_MPEG4/ISO/AVC
Duration : 2h 31mn
Bit rate : 9 891 Kbps
Width : 1 918 pixels
Height : 794 pixels
Display aspect ratio : 2.40:1
Frame rate mode : Constant
Frame rate : 23.976 fps
Color space : YUV
Chroma subsampling : 4:2:0
Bit depth : 8 bits
Scan type : Progressive
Bits/(Pixel*Frame) : 0.271
Stream size : 10.2 GiB (89%)
Title : Супермен.(1978).BDRip.1080p.[envy]
Writing library : x264 core 142 r2479 dd79a61
Encoding settings : cabac=1 / ref=5 / deblock=1:-3:-2 / analyse=0x3:0x113 / me=umh / subme=11 / psy=1 / psy_rd=1.00:0.00 / mixed_ref=1 / me_range=32 / chroma_me=1 / trellis=2 / 8x8dct=1 / cqm=0 / deadzone=21,11 / fast_pskip=0 / chroma_qp_offset=-2 / threads=12 / lookahead_threads=1 / sliced_threads=0 / nr=0 / decimate=1 / interlaced=0 / bluray_compat=0 / constrained_intra=0 / bframes=5 / b_pyramid=2 / b_adapt=2 / b_bias=0 / direct=3 / weightb=1 / open_gop=0 / weightp=2 / keyint=240 / keyint_min=23 / scenecut=40 / intra_refresh=0 / rc=2pass / mbtree=0 / bitrate=9891 / ratetol=2.0 / qcomp=0.60 / qpmin=0 / qpmax=69 / qpstep=4 / cplxblur=20.0 / qblur=0.5 / ip_ratio=1.40 / pb_ratio=1.30 / aq=2:1.00
Language : English
Default : Yes
Forced : No
Audio #1
ID : 2
Format : AC-3
Format/Info : Audio Coding 3
Mode extension : CM (complete main)
Format settings, Endianness : Big
Codec ID : A_AC3
Duration : 2h 31mn
Bit rate mode : Constant
Bit rate : 384 Kbps
Channel(s) : 6 channels
Channel positions : Front: L C R, Side: L R, LFE
Sampling rate : 48.0 KHz
Bit depth : 16 bits
Compression mode : Lossy
Stream size : 416 MiB (4%)
Title : MVO
Language : Russian
Default : Yes
Forced : No
Audio #2
ID : 3
Format : AC-3
Format/Info : Audio Coding 3
Mode extension : CM (complete main)
Format settings, Endianness : Big
Codec ID : A_AC3
Duration : 2h 31mn
Bit rate mode : Constant
Bit rate : 640 Kbps
Channel(s) : 6 channels
Channel positions : Front: L C R, Side: L R, LFE
Sampling rate : 48.0 KHz
Bit depth : 16 bits
Compression mode : Lossy
Stream size : 693 MiB (6%)
Title : Eng
Language : English
Default : No
Forced : No
Text #1
ID : 4
Format : UTF-8
Codec ID : S_TEXT/UTF8
Codec ID/Info : UTF-8 Plain Text
Title : full
Language : Russian
Default : No
Forced : No
Text #2
ID : 5
Format : UTF-8
Codec ID : S_TEXT/UTF8
Codec ID/Info : UTF-8 Plain Text
Title : full
Language : English
Default : No
Forced : No
Menu
00:00:00.000 : en:Chapter 1
00:07:05.341 : en:Chapter 2
00:14:28.200 : en:Chapter 3
00:20:13.837 : en:Chapter 4
00:29:27.098 : en:Chapter 5
00:39:02.590 : en:Chapter 6
00:50:56.803 : en:Chapter 7
00:59:52.755 : en:Chapter 8
01:08:53.129 : en:Chapter 9
01:16:19.950 : en:Chapter 10
01:25:27.705 : en:Chapter 11
01:35:23.259 : en:Chapter 12
01:41:30.334 : en:Chapter 13
01:49:18.343 : en:Chapter 14
01:57:00.638 : en:Chapter 15
02:04:44.351 : en:Chapter 16
---
[Профиль] [ЛС]
Показать сообщения:    

Текущее время: Сегодня 22:22

Часовой пояс: GMT



Вы не можете начинать темы
Вы не можете отвечать на сообщения
Вы не можете редактировать свои сообщения
Вы не можете удалять свои сообщения
Вы не можете голосовать в опросах
Вы не можете прикреплять файлы к сообщениям
Вы не можете скачивать файлы