Суперженщины / Electra Woman and Dyna Girl (2016) WEB-DLRip-AVC | L

 
Автор Сообщение

достали все ®

Пол:

Стаж: 1 год 8 месяцев

Сообщений: 6517



Награды: 12 (Подробнее)

Mega Releaser 1 (Количество: 1) Mega Seeder 3 (Количество: 1) Mega Seeder 2 (Количество: 1)
Торрент-статистика

Создавать темы 19-Июн-2016 11:47

[Цитировать]

Информация о фильме
Название: Суперженщины
Оригинальное название: Electra Woman and Dyna Girl
Год выхода: 2016
Жанр: комедия
Режиссер: Крис Маррс Пильеро
В ролях: Ханна Харт, Грэйс Хельбиг, Кристофер Коуттс, Тревор Лернер, Матрея Федор, Аарон Пол Стюарт, Энди Бакли, Клэйтон Читти
О фильме: Ремейк комедийного сериала 70-х на тему супергероев, вернее их поклонников.

Страна: США / Legendary Digital Media
Продолжительность: 01:21:08
Перевод: Любительский (многоголосый закадровый) [KOSHERA]
Файл
Качество: WEB-DLRip-AVC
Формат: MKV
Видео: AVC, 2500 Kb/s, 1024 x 440
Звук: Russian / English: AC3, 384 Kb/s (6 сh)
Субтитры: нет
Дополнительно: Сохранены оригинальные чаптеры

MediaInfo:

General
Unique ID : 211886486524349504088379112832056123322 (0x9F67DA5904E84444ADC4828D66DF5FBA)
Complete name : H:ДИСК1.ФИЛЬМЫСуперженщины Electra Woman and Dyna Girl (2016)Electra.Woman.and.Dyna.Girl.2016.WEB-DLRip-AVC.mkv
Format : Matroska
Format version : Version 4 / Version 2
File size : 1.86 GiB
Duration : 1h 21mn
Overall bit rate : 3 273 Kbps
Movie name : Release by basma4i
Writing application : XviD4PSP 7.0.276 DAILY
Writing library : Lavf57.25.100
ENCODING_INFO : MATROSKA,WEBM > MKV / H264 > X264 VBR-2P 2500kbps Произвольный / AC3 > AC3 CBR 384kbps / AC3 > AC3 CBR 384kbps
MIMETYPE : image/jpeg
FILENAME : cover.jpg
DURATION : 00:00:00.000000000
Attachements : cover_land.jpg / small_cover.jpg / small_cover_land.jpg / cover.jpg
Video
ID : 1
Format : AVC
Format/Info : Advanced Video Codec
Format profile : High@L4.1
Format settings, CABAC : Yes
Format settings, ReFrames : 11 frames
Codec ID : V_MPEG4/ISO/AVC
Bit rate : 2 500 Kbps
Width : 1 024 pixels
Height : 440 pixels
Display aspect ratio : 2.40:1
Original display aspect ratio : 2.40:1
Frame rate mode : Variable
Original frame rate : 23.976 fps
Color space : YUV
Chroma subsampling : 4:2:0
Bit depth : 8 bits
Scan type : Progressive
Bits/(Pixel*Frame) : 0.231
Writing library : x264 core 148 r2705M 3f5ed56
Encoding settings : cabac=1 / ref=11 / deblock=1:-3:-3 / analyse=0x3:0x133 / me=umh / subme=11 / psy=1 / psy_rd=1.00:0.20 / mixed_ref=1 / me_range=32 / chroma_me=1 / trellis=2 / 8x8dct=1 / cqm=0 / deadzone=21,11 / fast_pskip=1 / chroma_qp_offset=-3 / threads=12 / lookahead_threads=3 / sliced_threads=0 / nr=0 / decimate=1 / interlaced=0 / bluray_compat=0 / constrained_intra=0 / bframes=10 / b_pyramid=2 / b_adapt=2 / b_bias=0 / direct=3 / weightb=1 / open_gop=0 / weightp=2 / keyint=230 / keyint_min=23 / scenecut=40 / intra_refresh=0 / rc_lookahead=40 / rc=2pass / mbtree=1 / bitrate=2500 / ratetol=1.0 / qcomp=0.60 / qpmin=0 / qpmax=69 / qpstep=4 / cplxblur=20.0 / qblur=0.5 / ip_ratio=1.40 / aq=1:1.00
Language : English
Default : Yes
Forced : No
Color range : Limited
Color primaries : BT.709
Transfer characteristics : BT.709
Matrix coefficients : BT.709
DURATION : 01:21:10.704000000
Audio #1
ID : 2
Format : AC-3
Format/Info : Audio Coding 3
Mode extension : CM (complete main)
Format settings, Endianness : Big
Codec ID : A_AC3
Duration : 1h 21mn
Bit rate mode : Constant
Bit rate : 384 Kbps
Channel(s) : 6 channels
Channel positions : Front: L C R, Side: L R, LFE
Sampling rate : 48.0 KHz
Bit depth : 32 bits
Compression mode : Lossy
Stream size : 223 MiB (12%)
Language : Russian
Default : Yes
Forced : Yes
DURATION : 01:21:10.720000000
Audio #2
ID : 3
Format : AC-3
Format/Info : Audio Coding 3
Mode extension : CM (complete main)
Format settings, Endianness : Big
Codec ID : A_AC3
Duration : 1h 21mn
Bit rate mode : Constant
Bit rate : 384 Kbps
Channel(s) : 6 channels
Channel positions : Front: L C R, Side: L R, LFE
Sampling rate : 48.0 KHz
Bit depth : 32 bits
Compression mode : Lossy
Stream size : 223 MiB (12%)
Language : English
Default : Yes
Forced : No
DURATION : 01:21:10.688000000
Menu
00:00:00.000 : :1
00:04:53.168 : :2
00:08:45.400 : :3
00:11:05.331 : :4
00:17:01.562 : :5
00:20:53.001 : :6
00:26:19.911 : :7
00:30:44.717 : :8
00:36:29.895 : :9
00:41:56.096 : :10
00:49:04.149 : :11
00:52:30.230 : :12
00:57:38.037 : :13
01:02:18.025 : :14
01:07:30.253 : :15
01:12:45.776 : :16

Скриншоты

[Профиль] [ЛС]
Показать сообщения:    

Текущее время: Сегодня 07:06

Часовой пояс: GMT



Вы не можете начинать темы
Вы не можете отвечать на сообщения
Вы не можете редактировать свои сообщения
Вы не можете удалять свои сообщения
Вы не можете голосовать в опросах
Вы не можете прикреплять файлы к сообщениям
Вы не можете скачивать файлы