Супергёрл / Supergirl (1984) DVDRip-AVC | Director's Cut | L1

 
Автор Сообщение

Russian Mafia ®

Пол:

Стаж: 1 год 8 месяцев

Сообщений: 4256



Награды: 10 (Подробнее)

Mega Seeder 2 (Количество: 1) Mega Seeder 5 (Количество: 1) Mega Seeder 4 (Количество: 1)
Торрент-статистика

Создавать темы 09-Окт-2016 12:19

[Цитировать]

Название: Супергёрл
Оригинальное название: Supergirl
Год выхода: 1984
Страна: Великобритания, США
Студия: Artistry Limited, Investors In Industry PLC, Robert Fleming Leasing Limited
Продолжительность: 02:18:39
Жанр: фантастика, фэнтези, боевик, приключения, ...
Режиссер: Жанно Шварц
В ролях: Фэй Данауэй, Хелен Слейтер, Питер О’Тул, Харт Бокнер, Миа Фэрроу, Бренда Ваккаро, Питер Кук, Саймон Уорд, Марк МакКлюр, Морин Тифи, ...
Перевод: Любительский (одноголосый, закадровый) Никита Севостьянов
О фильме: Кузина Супермена Кара-Эль отправляется на Землю, чтобы найти и вернуть на родную планету омегагидрон — мощный источник энергии, попавший в руки ведьмы Селены, которая решила использовать его для захвата мира…

Кодек: x264
Качество: DVDRip-AVC
Видео: 852x364, 2500 kbps, 23,976 fps
Аудио #1: AC-3, 2 ch, 192 kbps (Rus) - VO Никита Севостьянов
Аудио #2: AC-3, 2 ch, 192 kbps (Eng)
Субтитры: Английские

Дополнительная информация

За исходник спасибо - Dreven

MediaInfo

x264 [info]: frame I:1489 Avg QP:17.10 size: 54888
x264 [info]: frame P:41185 Avg QP:19.33 size: 24108
x264 [info]: frame B:156790 Avg QP:21.61 size: 9725
x264 [info]: consecutive B-frames: 1.6% 2.2% 5.8% 18.6% 16.1% 45.0% 6.3% 2.5% 1.0% 0.3% 0.2% 0.2% 0.1%
Общее
Уникальный идентификатор : 233180612777058071770710703717324981293 (0xAF6CF3D467A13F5A96B1DACDCEDC842D)
Полное имя : Супергёрл (Supergirl) 1984 DVDRip.mkv
Формат : Matroska
Версия формата : Version 2
Размер файла : 2,79 Гбайт
Продолжительность : 2 ч. 18 м.
Общий поток : 2886 Кбит/сек
Дата кодирования : UTC 2016-10-07 10:54:23
Программа кодирования : mkvmerge v4.0.0 ('The Stars were mine') сборка от Jun 6 2010 16:18:42
Библиотека кодирования : libebml v1.0.0 + libmatroska v1.0.0
Видео
Идентификатор : 1
Формат : AVC
Формат/Информация : Advanced Video Codec
Профиль формата : High@L4.1
Параметр CABAC формата : Да
Параметр ReFrames формата : 12 кадров
Идентификатор кодека : V_MPEG4/ISO/AVC
Продолжительность : 2 ч. 18 м.
Битрейт : 2500 Кбит/сек
Ширина : 852 пикселя
Высота : 364 пикселя
Соотношение сторон : 2,35:1
Режим частоты кадров : Постоянный
Частота кадров : 23,976 (24000/1001) кадра/сек
Цветовое пространство : YUV
Субдискретизация насыщенности : 4:2:0
Битовая глубина : 8 бит
Тип развёртки : Прогрессивная
Бит/(Пиксели*Кадры) : 0.336
Размер потока : 2,37 Гбайт (85%)
Библиотека кодирования : x264 core 146 r2538 121396c
Настройки программы : cabac=1 / ref=12 / deblock=1:-3:-3 / analyse=0x3:0x133 / me=umh / subme=11 / psy=1 / psy_rd=1.00:0.00 / mixed_ref=1 / me_range=32 / chroma_me=1 / trellis=2 / 8x8dct=1 / cqm=0 / deadzone=21,11 / fast_pskip=0 / chroma_qp_offset=-2 / threads=12 / lookahead_threads=2 / sliced_threads=0 / nr=0 / decimate=0 / interlaced=0 / bluray_compat=0 / constrained_intra=0 / bframes=12 / b_pyramid=2 / b_adapt=2 / b_bias=0 / direct=3 / weightb=1 / open_gop=0 / weightp=2 / keyint=240 / keyint_min=23 / scenecut=40 / intra_refresh=0 / rc=2pass / mbtree=0 / bitrate=2500 / ratetol=1.0 / qcomp=0.60 / qpmin=0 / qpmax=69 / qpstep=4 / cplxblur=20.0 / qblur=0.5 / ip_ratio=1.40 / pb_ratio=1.30 / aq=1:0.80
Язык : English
Default : Нет
Forced : Нет
Аудио #1
Идентификатор : 2
Формат : AC-3
Формат/Информация : Audio Coding 3
Расширение режима : CM (complete main)
Параметр Endianness формата : Big
Идентификатор кодека : A_AC3
Продолжительность : 2 ч. 18 м.
Вид битрейта : Постоянный
Битрейт : 192 Кбит/сек
Каналы : 2 канала
Расположение каналов : Front: L R
Частота : 48,0 КГц
Частота кадров : 31,250 кадров/сек (1536 spf)
Метод сжатия : С потерями
Размер потока : 190 Мбайт (7%)
Заголовок : AVO Никита Севостьянов
Язык : Russian
Default : Нет
Forced : Нет
Аудио #2
Идентификатор : 3
Формат : AC-3
Формат/Информация : Audio Coding 3
Расширение режима : CM (complete main)
Параметр Endianness формата : Big
Идентификатор кодека : A_AC3
Продолжительность : 2 ч. 18 м.
Вид битрейта : Постоянный
Битрейт : 192 Кбит/сек
Каналы : 2 канала
Расположение каналов : Front: L R
Частота : 48,0 КГц
Частота кадров : 31,250 кадров/сек (1536 spf)
Метод сжатия : С потерями
Размер потока : 190 Мбайт (7%)
Язык : English
Default : Нет
Forced : Нет
Текст
Идентификатор : 4
Формат : UTF-8
Идентификатор кодека : S_TEXT/UTF8
Идентификатор кодека/Информация : UTF-8 Plain Text
Язык : English
Default : Нет
Forced : Нет

[Профиль] [ЛС]
Показать сообщения:    

Текущее время: Сегодня 02:25

Часовой пояс: GMT



Вы не можете начинать темы
Вы не можете отвечать на сообщения
Вы не можете редактировать свои сообщения
Вы не можете удалять свои сообщения
Вы не можете голосовать в опросах
Вы не можете прикреплять файлы к сообщениям
Вы не можете скачивать файлы