Супергеройское кино / Superhero Movie (Крэйг Мазин / Craig Mazin) [2008, США, Комедия, пародия, фантастика, комиксы, BDRip] Dub + Original Eng + subs (rus, eng)

 
Автор Сообщение

TorrentFilm ®

Пол:

Стаж: 2 года

Сообщений: 7741



Награды: Нет

Торрент-статистика

Создавать темы 04-Янв-2015 00:00

[Цитировать]

Супергеройское кино / Superhero Movie- Год выпуска: 2008
Выпущено: США
Жанр: Комедия, пародия, фантастика, комиксы
Продолжительность: 01:22:29
Перевод: Профессиональный (полное дублирование)
+ Оригинальная звуковая дорожка
Субтитры: Русские, английские (внешние srt*)-Режиссер: Крэйг Мазин / Craig Mazin
В ролях: Дрейк Белл, Сара Пэкстон, Кристофер МакДональд, Лесли Нильсен, Кевин Харт, Мэрион Росс, Райан Хансен, Кит Дэвид, Брент Спайнер, Роберт Джой
О фильме: Сколько супергероев уже пытались спасти мир? Знакомьтесь с новым: его зовут Рик Райкер! Обычный школьник вдруг неожиданным способом обретает суперспособности (кроме умения летать!) Вот если бы ещё он знал, как их использовать. Так что берегитесь: Стрекозец спешит на помощь!-Релиз:
Автор: yaroslaigor
Качество: BDRip (источник: / BD-Remux / 1080i)
Формат: AVI
Видео: 704x400 (1.76:1), 25 fps, XviD build 65 ~1735 kbps avg, 0.25 bit/pixel
Аудио #1: 48 kHz, AC3 Dolby Digital, 3/2 (L,C,R,l,r) + LFE ch, ~384.00 kbps avg rus
Аудио #2: 48 kHz, AC3 Dolby Digital, 3/2 (L,C,R,l,r) + LFE ch, ~384.00 kbps avg eng
Размер: 1486.29 Mb (1/3 DVD-R)
Скачать: Семпл-

Кадры из фильма


-

Mi

Формат : AVI
Формат/Информация : Audio Video Interleave
Размер файла : 1,45 Гбайт
Продолжительность : 1 ч. 22 м.
Общий поток : 2519 Кбит/сек
Название фильма : Супергеройское кино / Superhero Movie (2008) BDRip
Режиссёр : sociolog_melvas
Жанр : фантастика, боевик, комедия
Программа кодирования : VirtualDubMod 1.5.10.2 (build 2540/release)
Примечание : 29.12.2014
Видео
Идентификатор : 0
Формат : MPEG-4 Visual
Профиль формата : Advanced Simple@L5
Параметр BVOP формата : 1
Параметр QPel формата : Нет
Параметр GMC формата : Без точки перехода
Параметр матрицы формата : Выборочная
Идентификатор кодека : XVID
Идентификатор кодека/Подсказка : XviD
Продолжительность : 1 ч. 22 м.
Битрейт : 1736 Кбит/сек
Ширина : 704 пикселя
Высота : 400 пикселей
Соотношение сторон : 16:9
Частота кадров : 25,000 кадров/сек
Цветовое пространство : YUV
Субдискретизация насыщенности : 4:2:0
Битовая глубина : 8 бит
Тип развёртки : Прогрессивная
Метод сжатия : С потерями
Бит/(Пиксели*Кадры) : 0.247
Размер потока : 1,00 Гбайт (69%)
Библиотека кодирования : XviD 65
Аудио #1
Идентификатор : 1
Формат : AC-3
Формат/Информация : Audio Coding 3
Расширение режима : CM (complete main)
Параметр Endianness формата : Big
Идентификатор кодека : 2000
Продолжительность : 1 ч. 22 м.
Вид битрейта : Постоянный
Битрейт : 384 Кбит/сек
Каналы : 6 каналов
Расположение каналов : Front: L C R, Side: L R, LFE
Частота : 48,0 КГц
Битовая глубина : 16 бит
Метод сжатия : С потерями
Размер потока : 227 Мбайт (15%)
Выравнивание : Разделение по промежуткам
Продолжительность промежутка : 40 мс. (1,00 видеокадр)
Время предзагрузки промежутка : 500 мс.
Аудио #2
Идентификатор : 2
Формат : AC-3
Формат/Информация : Audio Coding 3
Расширение режима : CM (complete main)
Параметр Endianness формата : Big
Идентификатор кодека : 2000
Продолжительность : 1 ч. 22 м.
Вид битрейта : Постоянный
Битрейт : 384 Кбит/сек
Каналы : 6 каналов
Расположение каналов : Front: L C R, Side: L R, LFE
Частота : 48,0 КГц
Битовая глубина : 16 бит
Метод сжатия : С потерями
Размер потока : 227 Мбайт (15%)
Выравнивание : Разделение по промежуткам
Продолжительность промежутка : 40 мс. (1,00 видеокадр)
Время предзагрузки промежутка : 500 мс.
-
[Профиль] [ЛС]

Создавать темы 06-Авг-2015 22:50 (спустя 7 месяцев 2 дня)

Топик был перенесен из форума Фильмы до 2014 года в форум Фильмы до 2012 года
sergej644
 

Создавать темы 12-Июн-2016 08:51 (спустя 1 год 5 месяцев)

Топик был перенесен из форума Фильмы 2011 года в форум Фильмы 2006-2008 года
Russian Mafia
 
Показать сообщения:    

Текущее время: Сегодня 22:43

Часовой пояс: GMT



Вы не можете начинать темы
Вы не можете отвечать на сообщения
Вы не можете редактировать свои сообщения
Вы не можете удалять свои сообщения
Вы не можете голосовать в опросах
Вы не можете прикреплять файлы к сообщениям
Вы не можете скачивать файлы