Супергеройское кино / Superhero Movie (Крэйг Мазин / Craig Mazin) [2008, США, Комедия, пародия, фантастика, комиксы, BDRip-AVC] Dub + Ukr (MVO) + Original Eng + subs (rus, eng)

 
Автор Сообщение

TorrentFilm ®

Пол:

Стаж: 2 года

Сообщений: 7741



Награды: Нет

Торрент-статистика

Создавать темы 21-Дек-2014 02:00

[Цитировать]

Супергеройское кино / Superhero Movie- Год выпуска: 2008
Выпущено: США
Жанр: Комедия, пародия, фантастика, комиксы
Продолжительность: 01:22:29
Перевод: Профессиональный (полное дублирование)
+ Украинский (многоголосый, закадровый)
Субтитры: Русские, английские (srt*)
Оригинальная аудиодорожка: английский-Режиссер: Крэйг Мазин / Craig Mazin
В ролях: Дрейк Белл, Сара Пэкстон, Кристофер МакДональд, Лесли Нильсен, Кевин Харт, Мэрион Росс, Райан Хансен, Кит Дэвид, Брент Спайнер, Роберт Джой
О фильме: Сколько супергероев уже пытались спасти мир? Знакомьтесь с новым: его зовут Рик Райкер! Обычный школьник вдруг неожиданным способом обретает суперспособности (кроме умения летать!) Вот если бы ещё он знал, как их использовать. Так что берегитесь: Стрекозец спешит на помощь!-Релиз:
Автор: Joker
Качество: BDRip-AVC (источник: / BD-Remux / 1080p)
Формат: MKV
Видео: 1024x576 (2.40:1), 25 fps, MPEG-4 AVC, ~3158 kbps avg, 0.214 bit/pixel
Аудио #1: 48 kHz, AC3 Dolby Digital, 3/2 (L,C,R,l,r) + LFE ch, ~384 kbps |Russian - Dub|
Аудио #2: 48 kHz, AC3 Dolby Digital, 3/2 (L,C,R,l,r) + LFE ch, ~384 kbps |Ukraine - MVO|
Аудио #3: 48 kHz, AC3 Dolby Digital, 3/2 (L,C,R,l,r) + LFE ch, ~384 kbps |English|
Скачать: Семпл-

Кадры из фильма


-

Mi

Формат : Matroska
Версия формата : Version 4 / Version 2
Размер файла : 2,53 Гбайт
Продолжительность : 1 ч. 22 м.
Общий поток : 4397 Кбит/сек
Дата кодирования : UTC 2014-11-28 17:02:59
Программа кодирования : mkvmerge v7.3.0 ('Nouages') 64bit built on Oct 22 2014 18:53:34
Библиотека кодирования : libebml v1.3.0 + libmatroska v1.4.1
Видео
Идентификатор : 1
Формат : AVC
Формат/Информация : Advanced Video Codec
Профиль формата : High@L4.1
Параметр CABAC формата : Да
Параметр ReFrames формата : 11 кадров
Идентификатор кодека : V_MPEG4/ISO/AVC
Продолжительность : 1 ч. 22 м.
Битрейт : 3158 Кбит/сек
Ширина : 1024 пикселя
Высота : 576 пикселей
Соотношение сторон : 16:9
Режим частоты кадров : Постоянный
Частота кадров : 25,000 кадров/сек
Цветовое пространство : YUV
Субдискретизация насыщенности : 4:2:0
Битовая глубина : 8 бит
Тип развёртки : Прогрессивная
Бит/(Пиксели*Кадры) : 0.214
Размер потока : 1,82 Гбайт (72%)
Заголовок : Супергеройское кино / Superhero Movie (2008) BDRip-AVC by HQCLUB [Joker]
Библиотека кодирования : x264 core 142 r2491 24e4fed
Настройки программы : cabac=1 / ref=11 / deblock=1:-3:-2 / analyse=0x3:0x113 / me=umh / subme=11 / psy=1 / psy_rd=1.00:0.00 / mixed_ref=1 / me_range=32 / chroma_me=1 / trellis=2 / 8x8dct=1 / cqm=0 / deadzone=21,11 / fast_pskip=0 / chroma_qp_offset=-2 / threads=6 / lookahead_threads=1 / sliced_threads=0 / nr=0 / decimate=0 / interlaced=0 / bluray_compat=0 / constrained_intra=0 / bframes=13 / b_pyramid=2 / b_adapt=2 / b_bias=0 / direct=1 / weightb=1 / open_gop=0 / weightp=2 / keyint=250 / keyint_min=25 / scenecut=40 / intra_refresh=0 / rc_lookahead=40 / rc=crf / mbtree=1 / crf=17.9 / qcomp=0.70 / qpmin=0 / qpmax=69 / qpstep=4 / vbv_maxrate=50000 / vbv_bufsize=62500 / crf_max=0.0 / nal_hrd=none / filler=0 / ip_ratio=1.40 / aq=2:0.90
Язык : English
Default : Да
Forced : Нет
Аудио #1
Идентификатор : 2
Формат : AC-3
Формат/Информация : Audio Coding 3
Расширение режима : CM (complete main)
Параметр Endianness формата : Big
Идентификатор кодека : A_AC3
Продолжительность : 1 ч. 22 м.
Вид битрейта : Постоянный
Битрейт : 384 Кбит/сек
Каналы : 6 каналов
Расположение каналов : Front: L C R, Side: L R, LFE
Частота : 48,0 КГц
Битовая глубина : 16 бит
Метод сжатия : С потерями
Размер потока : 227 Мбайт (9%)
Заголовок : АС3 5.1 @ 384 kbps - Dub
Язык : Russian
Default : Нет
Forced : Нет
Аудио #2
Идентификатор : 3
Формат : AC-3
Формат/Информация : Audio Coding 3
Расширение режима : CM (complete main)
Параметр Endianness формата : Big
Идентификатор кодека : A_AC3
Продолжительность : 1 ч. 22 м.
Вид битрейта : Постоянный
Битрейт : 384 Кбит/сек
Каналы : 6 каналов
Расположение каналов : Front: L C R, Side: L R, LFE
Частота : 48,0 КГц
Битовая глубина : 16 бит
Метод сжатия : С потерями
Размер потока : 227 Мбайт (9%)
Заголовок : АС3 5.1 @ 384 kbps - MVO
Язык : Ukrainian
Default : Нет
Forced : Нет
Аудио #3
Идентификатор : 4
Формат : AC-3
Формат/Информация : Audio Coding 3
Расширение режима : CM (complete main)
Параметр Endianness формата : Big
Идентификатор кодека : A_AC3
Продолжительность : 1 ч. 22 м.
Вид битрейта : Постоянный
Битрейт : 384 Кбит/сек
Каналы : 6 каналов
Расположение каналов : Front: L C R, Side: L R, LFE
Частота : 48,0 КГц
Битовая глубина : 16 бит
Метод сжатия : С потерями
Размер потока : 227 Мбайт (9%)
Заголовок : АС3 5.1 @ 384 kbps - Original
Язык : English
Default : Нет
Forced : Нет
Текст #1
Идентификатор : 5
Формат : UTF-8
Идентификатор кодека : S_TEXT/UTF8
Идентификатор кодека/Информация : UTF-8 Plain Text
Заголовок : Full
Язык : Russian
Default : Нет
Forced : Нет
Текст #2
Идентификатор : 6
Формат : UTF-8
Идентификатор кодека : S_TEXT/UTF8
Идентификатор кодека/Информация : UTF-8 Plain Text
Заголовок : Full
Язык : English
Default : Нет
Forced : Нет
Меню
00:00:00.000 : :Chapter 01
00:04:46.000 : :Chapter 02
00:08:42.000 : :Chapter 03
00:13:17.000 : :Chapter 04
00:18:58.000 : :Chapter 05
00:28:54.400 : :Chapter 06
00:36:27.000 : :Chapter 07
00:45:11.760 : :Chapter 08
00:53:54.599 : :Chapter 09
00:59:51.360 : :Chapter 10
01:05:20.599 : :Chapter 11
01:07:59.000 : :Chapter 12
01:10:46.118 : :Chapter 13
01:13:00.000 : :Chapter 14
01:13:57.238 : :Chapter 15
01:17:25.279 : :Chapter 16
01:22:28.960 : :Chapter 17

-

x264 log


frame I:1490 Avg QP:15.09 size:105271
frame P:23922 Avg QP:19.04 size: 31240
frame B:98336 Avg QP:21.09 size: 11209
consecutive B-frames: 2.4% 1.4% 3.9% 13.6% 15.2% 43.9% 10.0% 1.5% 2.7% 1.0% 1.0% 0.9% 1.1% 1.5%
ref P L0: 43.9% 9.5% 20.2% 6.7% 6.1% 3.7% 3.7% 1.7% 1.7% 1.3% 1.4% 0.1% 0.0%
ref B L0: 67.0% 14.1% 7.3% 3.8% 2.5% 2.0% 1.5% 0.9% 0.5% 0.2%
ref B L1: 91.2% 8.8%
-
[Профиль] [ЛС]

Создавать темы 06-Авг-2015 22:53 (спустя 7 месяцев 16 дней)

Топик был перенесен из форума Фильмы до 2014 года в форум Фильмы до 2012 года
sergej644
 

Создавать темы 12-Июн-2016 08:51 (спустя 1 год 5 месяцев)

Топик был перенесен из форума Фильмы 2011 года в форум Фильмы 2006-2008 года
Russian Mafia
 
Показать сообщения:    

Текущее время: Сегодня 20:27

Часовой пояс: GMT



Вы не можете начинать темы
Вы не можете отвечать на сообщения
Вы не можете редактировать свои сообщения
Вы не можете удалять свои сообщения
Вы не можете голосовать в опросах
Вы не можете прикреплять файлы к сообщениям
Вы не можете скачивать файлы