СуперБобровы (2016) BDRip | Лицензия

 
Автор Сообщение

BOSS ®

Пол:

Стаж: 2 года 1 месяц

Сообщений: 3735

Откуда: ODESSA



Награды: 20 (Подробнее)

Mega Seeder 2 (Количество: 1) Mega Seeder 3 (Количество: 1) Top Keeper 4 (Количество: 1)
Торрент-статистика

Создавать темы 21-Май-2016 06:57

[Цитировать]

«Вместе мы сила»
Информация о фильме
Название: СуперБобровы
Год выхода: 2016
Жанр: Комедия, семейный
Режиссер: Дмитрий Дьяченко
В ролях: Павел Деревянко, Оксана Акиньшина, Роман Мадянов, Ирина Пегова, Владимир Толоконников, Даниил Вахрушев, Софья Мицкевич, Михаил Шамигулов, Елизавета Кононова, Виталий Кищенко
О фильме:
Вместо десерта на ужин семейство Бобровых получило… метеорит. Настоящий, большой, из космоса. Благодаря ему Бобровы вдруг приобретают немыслимые сверхспособности. Дед становится бессмертным, а отец теперь может телепортироваться. Сын начинает понимать собачий язык, а его сёстры получают суперсилу, возможность летать и быть невидимой. Единственное ограничение — способности действуют только когда вся семейка в сборе.
Короче, у заурядной, среднестатистической ячейки общества появляется шанс превратиться в отряд настоящих супергероев. Вот только вместо того, чтобы спасать мир, они решают ограбить ближайший банк…

Страна: Россия
Студия: Yellow, Black & White
Продолжительность: 01:31:28
Перевод: Не требуется
Файл
Качество: BDRip (исх. СуперБобровы (2016) Blu-ray RUS 1080i AVC DTS-HD 5.1)
Кодек: XviD
Видео: 720x304 (2,35:1), 25 fps, XviD ~1830 kbps avg, 0.334 bit/pixel
Аудио: AC3, 48 kHz, 6 ch, ~448.00 kbps avg
Субтитры: Отсутствуют
Семпл

Инфо-файл

Общее
Полное имя : SuperBobrovy.(2016).BDRip.avi
Формат : AVI
Формат/Информация : Audio Video Interleave
Размер файла : 1,46 Гбайт
Продолжительность : 1 ч. 31 м.
Общий поток : 2288 Кбит/сек
Программа кодирования : VirtualDubMod 1.5.10.3 (build 2550/release)
Библиотека кодирования : VirtualDubMod build 2550/release
Видео
Идентификатор : 0
Формат : MPEG-4 Visual
Профиль формата : Advanced Simple@L5
Параметр BVOP формата : 2
Параметр QPel формата : Нет
Параметр GMC формата : Без точки перехода
Параметр матрицы формата : Default (MPEG)
Идентификатор кодека : XVID
Идентификатор кодека/Подсказка : XviD
Продолжительность : 1 ч. 31 м.
Битрейт : 1830 Кбит/сек
Ширина : 720 пикселей
Высота : 304 пикселя
Соотношение сторон : 2,35:1
Частота кадров : 25,000 кадров/сек
Цветовое пространство : YUV
Субдискретизация насыщенности : 4:2:0
Битовая глубина : 8 бит
Тип развёртки : Прогрессивная
Метод сжатия : С потерями
Бит/(Пиксели*Кадры) : 0.334
Размер потока : 1,17 Гбайт (80%)
Библиотека кодирования : XviD 73
Аудио
Идентификатор : 1
Формат : AC-3
Формат/Информация : Audio Coding 3
Расширение режима : CM (complete main)
Параметр Endianness формата : Big
Идентификатор кодека : 2000
Продолжительность : 1 ч. 31 м.
Вид битрейта : Постоянный
Битрейт : 448 Кбит/сек
Каналы : 6 каналов
Расположение каналов : Front: L C R, Side: L R, LFE
Частота : 48,0 КГц
Частота кадров : 31,250 кадров/сек (1536 spf)
Метод сжатия : С потерями
Размер потока : 293 Мбайт (20%)
Выравнивание : Разделение по промежуткам
Продолжительность промежутка : 40 мс. (1,00 видеокадр)
Время предзагрузки промежутка : 500 мс.

Скриншоты

[Профиль] [ЛС]
Показать сообщения:    

Текущее время: Сегодня 08:14

Часовой пояс: GMT



Вы не можете начинать темы
Вы не можете отвечать на сообщения
Вы не можете редактировать свои сообщения
Вы не можете удалять свои сообщения
Вы не можете голосовать в опросах
Вы не можете прикреплять файлы к сообщениям
Вы не можете скачивать файлы