СуперБобровы (2015) WEB-DL 1080p | iTunes

 
Автор Сообщение

достали все ®

Пол:

Стаж: 1 год 8 месяцев

Сообщений: 6545



Награды: 12 (Подробнее)

Mega Seeder 5 (Количество: 1) Mega Seeder 1 (Количество: 1) Top Releaser 4 (Количество: 1)
Торрент-статистика

Создавать темы 21-Апр-2016 13:28

[Цитировать]

Информация о фильме
Название: СуперБобровы
Оригинальное название: СуперБобровы
Год выхода: 2015
Жанр: комедия, семейный
Режиссер: Дмитрий Дьяченко
В ролях: Павел Деревянко, Оксана Акиньшина, Роман Мадянов, Ирина Пегова, Владимир Толоконников, Даниил Вахрушев, Софья Мицкевич, Михаил Шамигулов, Елизавета Кононова, Виталий Кищенко
О фильме: Вместо десерта на ужин семейство Бобровых получило… метеорит. Настоящий, большой, из космоса. Благодаря ему Бобровы вдруг приобретают немыслимые сверхспособности. Дед становится бессмертным, а отец теперь может телепортироваться. Сын начинает понимать собачий язык, а его сёстры получают суперсилу, возможность летать и быть невидимой. Единственное ограничение — способности действуют только когда вся семейка в сборе. Короче, у заурядной, среднестатистической ячейки общества появляется шанс превратиться в отряд настоящих супергероев. Вот только вместо того, чтобы спасать мир, они решают ограбить ближайший банк…

Выпущено: Россия
Продолжительность: 01:35:12
Озвучивание: Оригинал [iTunes]
Файл
Формат: MKV
Качество: WEB-DL 1080p
Видео: MPEG-4 AVC, 4406 Кбит/с, 1920x804
Аудио: AC3, 384 kb/s (6 ch)

Скриншоты

MediaInfo

Общее
Уникальный идентификатор : 243960844935975791434233008821155437348 (0xB789264F9846A7A1A6DA18B4FD689B24)
Полное имя : D:192.168.1.30SuperBobrOv1.2O16.O.WEB-DL.1O8Op.mkv
Формат : Matroska
Версия формата : Version 2
Размер файла : 3,35 Гбайт
Продолжительность : 1 ч. 35 м.
Общий поток : 5029 Кбит/сек
Дата кодирования : UTC 2016-04-20 18:08:20
Программа кодирования : mkvmerge v8.3.0 ('Over the Horizon') 64bit
Библиотека кодирования : libebml v1.3.1 + libmatroska v1.4.2
Видео #1
Идентификатор : 2
Формат : AVC
Формат/Информация : Advanced Video Codec
Профиль формата : High@L4
Параметр CABAC формата : Да
Параметр ReFrames формата : 5 кадров
Идентификатор кодека : V_MPEG4/ISO/AVC
Продолжительность : 1 ч. 35 м.
Битрейт : 4494 Кбит/сек
Ширина : 1920 пикселей
Высота : 804 пикселя
Соотношение сторон : 2,40:1
Режим частоты кадров : Постоянный
Частота кадров : 24,000 кадра/сек
Цветовое пространство : YUV
Субдискретизация насыщенности : 4:2:0
Битовая глубина : 8 бит
Тип развёртки : Прогрессивная
Бит/(Пиксели*Кадры) : 0.121
Размер потока : 2,99 Гбайт (89%)
Язык : English
Default : Да
Forced : Нет
Цветовой диапазон : Limited
Основные цвета : BT.709
Характеристики трансфера : BT.709
Коэффициенты матрицы : BT.709
Видео #2
Идентификатор : 3
Формат : V_QUICKTIME
Идентификатор кодека : V_QUICKTIME
Продолжительность : 1 ч. 35 м.
Битрейт : 4734 бит/сек
Ширина : 640 пикселей
Высота : 268 пикселей
Соотношение сторон : 2,40:1
Режим частоты кадров : Постоянный
Частота кадров : 0,003 кадр/сек
Бит/(Пиксели*Кадры) : 9.200
Размер потока : 3,23 Мбайт (0%)
Default : Нет
Forced : Нет
Аудио #1
Идентификатор : 1
Формат : AAC
Формат/Информация : Advanced Audio Codec
Профиль формата : LC
Идентификатор кодека : A_AAC
Продолжительность : 1 ч. 35 м.
Битрейт : 156 Кбит/сек
Каналы : 2 канала
Расположение каналов : Front: L R
Частота : 48,0 КГц
Частота кадров : 46,875 кадров/сек (1024 spf)
Метод сжатия : С потерями
Размер потока : 106 Мбайт (3%)
Язык : Russian
Default : Да
Forced : Нет
Аудио #2
Идентификатор : 4
Формат : AC-3
Формат/Информация : Audio Coding 3
Расширение режима : CM (complete main)
Параметр Endianness формата : Big
Идентификатор кодека : A_AC3
Продолжительность : 1 ч. 35 м.
Вид битрейта : Постоянный
Битрейт : 384 Кбит/сек
Каналы : 6 каналов
Расположение каналов : Front: L C R, Side: L R, LFE
Частота : 48,0 КГц
Частота кадров : 31,250 кадров/сек (1536 spf)
Метод сжатия : С потерями
Размер потока : 261 Мбайт (8%)
Язык : Russian
Default : Нет
Forced : Нет
Меню
00:00:00.000 : en:Глава 1
00:05:48.000 : en:Глава 2
00:11:31.541 : en:Глава 3
00:17:33.541 : en:Глава 4
00:23:10.749 : en:Глава 5
00:28:51.874 : en:Глава 6
00:34:25.707 : en:Глава 7
00:41:08.665 : en:Глава 8
00:47:43.540 : en:Глава 9
00:53:00.456 : en:Глава 10
00:58:34.622 : en:Глава 11
01:03:53.705 : en:Глава 12
01:09:34.580 : en:Глава 13
01:16:31.871 : en:Глава 14
01:22:49.287 : en:Глава 15
01:29:28.162 : en:Глава 16
[Профиль] [ЛС]
Показать сообщения:    

Текущее время: Сегодня 22:39

Часовой пояс: GMT



Вы не можете начинать темы
Вы не можете отвечать на сообщения
Вы не можете редактировать свои сообщения
Вы не можете удалять свои сообщения
Вы не можете голосовать в опросах
Вы не можете прикреплять файлы к сообщениям
Вы не можете скачивать файлы