Сумерки. Сага. Новолуние / The Twilight Saga: New Moon (Крис Вайц / Chris Weitz) [2009, США, фэнтези, драма, мелодрама, приключения, BDRip] AVO (Немахов)

 
Автор Сообщение

reversefile ®

Пол:

Стаж: 4 года 11 месяцев

Сообщений: 842

Откуда: ReverseFile.org



Награды: Нет

Торрент-статистика

Создавать темы 13-Авг-2014 10:06

[Цитировать]

Сумерки. Сага. Новолуние / The Twilight Saga: New Moon- Страна: США
Жанр: фэнтези, драма, мелодрама, приключения
Год выпуска: 2009
Продолжительность: 02:10:38
Перевод: Авторский (одноголосый закадровый) Немахов
Cубтитры: нет-Режиссер: Крис Вайц / Chris Weitz
В ролях: Кристен Стюарт, Тэйлор Лотнер, Роберт Паттинсон, Билли Бёрк, Эшли Грин, Анна Кендрик, Кристиан Серратос, Майкл Уэлш, Джастин Чон, Кристина Ястржембска.
Описание: Сюжет фильма Сумерки. Сага. Новолуние главная героиня — Белла Свон, отправляется праздновать свой восемнадцатый день рождение к семье своего возлюбленного Эдварда. Познакомившись со всеми членами семьи она узнает много нового и интересного, даже то, что может угрожать ее жизни. И Эвард решает расстаться с Беллой, что бы оградить ее от опасности общения с вампирами. Страдая от расставания, героиня после пары месяцев терзаний приезжает в гости к своему другу Джейкобу. От друга Белла узнает что он оборотень. Однажды Белла начинает слышать голос своего возлюбленного, который подсказывает ей как уберегтись от опасностей. Чтобы нарочно встретиться с вампиром, главная героиня начинает подвергать свою жизнь опасностям...-Автор видео: poleee
Качество видео: BDRip (источник: Blu-ray / 1080p)
Формат видео: AVI | Sample
Видео: 720x304 (2.37:1), 23.976 fps, XviD build 50 ~1931 kbps avg, 0.37 bit/pixel
Аудио: 48 kHz, AC3 Dolby Digital, 3/2 (L,C,R,l,r) + LFE ch, ~448.00 kbps avg
Медиаинфо">

Скриншоты Медиаинфо


Общее
Формат : AVI
Формат/Информация : Audio Video Interleave
Профиль формата : OpenDML
Размер файла : 2,18 Гбайт
Продолжительность : 2 ч. 10 м.
Общий поток : 2391 Кбит/сек
Программа кодирования : VirtualDubModRus 1.5.10.2 (build 2542/release)
Библиотека кодирования : VirtualDubMod build 2542/release
Видео
Идентификатор : 0
Формат : MPEG-4 Visual
Профиль формата : Advanced Simple@L5
Параметр BVOP формата : 1
Параметр QPel формата : Нет
Параметр GMC формата : Без точки перехода
Параметр матрицы формата : Выборочная
Идентификатор кодека : XVID
Идентификатор кодека/Подсказка : XviD
Продолжительность : 2 ч. 10 м.
Битрейт : 1931 Кбит/сек
Ширина : 720 пикселей
Высота : 304 пикселя
Соотношение сторон : 2,35:1
Частота кадров : 23,976 кадра/сек
Цветовое пространство : YUV
Субдискретизация насыщенности : 4:2:0
Битовая глубина : 8 бит
Тип развёртки : Прогрессивная
Метод сжатия : С потерями
Бит/(Пиксели*Кадры) : 0.368
Размер потока : 1,76 Гбайт (81%)
Библиотека кодирования : XviD 1.2.1 (UTC 2008-12-04)
Аудио
Идентификатор : 1
Формат : AC-3
Формат/Информация : Audio Coding 3
Расширение режима : CM (complete main)
Параметр Endianness формата : Big
Идентификатор кодека : 2000
Продолжительность : 2 ч. 10 м.
Вид битрейта : Постоянный
Битрейт : 448 Кбит/сек
Каналы : 6 каналов
Расположение каналов : Front: L C R, Side: L R, LFE
Частота : 48,0 КГц
Битовая глубина : 16 бит
Метод сжатия : С потерями
Размер потока : 419 Мбайт (19%)
Выравнивание : Разделение по промежуткам
Продолжительность промежутка : 42 мс. (1,00 видеокадр)
Время предзагрузки промежутка : 500 мс.
[Профиль] [ЛС]

Создавать темы 06-Авг-2015 23:18 (спустя 11 месяцев 24 дня)

Топик был перенесен из форума Фильмы до 2014 года в форум Фильмы до 2012 года
sergej644
 

Создавать темы 12-Июн-2016 08:13 (спустя 1 год 9 месяцев)

Топик был перенесен из форума Фильмы 2011 года в форум Фильмы 2009 года
Russian Mafia
 
Кто просматривает тему:

Показать сообщения:    

Текущее время: Сегодня 05:23

Часовой пояс: GMT



Вы не можете начинать темы
Вы не можете отвечать на сообщения
Вы не можете редактировать свои сообщения
Вы не можете удалять свои сообщения
Вы не можете голосовать в опросах
Вы не можете прикреплять файлы к сообщениям
Вы не можете скачивать файлы