Сумеречная страна / Skumringslandet (Пауль Магнус Лундё) [2014, фэнтези, криминал, детектив] HDRip | L2

 
Автор Сообщение

BOSS ®

Пол:

Стаж: 2 года 1 месяц

Сообщений: 3735

Откуда: ODESSA



Награды: 20 (Подробнее)

Top Releaser 4 (Количество: 1) Top Seeder 4 (Количество: 1) Mega Releaser 2 (Количество: 1)
Торрент-статистика

Создавать темы 09-Фев-2015 07:58

[Цитировать]

Информация о фильме
Название: Сумеречная страна
Оригинальное название: Skumringslandet
Год выхода: 2014
Жанр: фэнтези, криминал, детектив
Режиссер: Пауль Магнус Лундё
В ролях: Лейф Нюгор, Ким Бодния, Йёрген Лангхелле, Андреас Вильсон, Сверре Анкер Оусдаль, Томас Аске Берг, Эвен Бремнер, Гер Юли Фьелль, Ларс Могенс Осе, Марианна Мэланн Фредбу, Эспен Хана, Ян Хокон Хансен, Эрик Хельгесен, Кристина Кнабен Хеннестад, Фредрик Финне Хальворсен
О фильме:
Норвегия, 1348 год. Свирепствует чума. Двое братьев, Вильхельм и Ансгар, переживают не лучшие времена. Обвиненный в колдовстве и сговоре с дьяволом, Ансгар вынужден скрываться. Повсюду находят изуродованные тела жителей местной деревушки. Народ напуган и во всем винит Ансгара, который стал для них ночным кошмаром. Он шлет письмо брату в Париж с мольбой о помощи, и Вильхельм возвращается на родину. Неужели его брат действительно виновен в этих жутких преступлениях? Вскоре Вильхельму открываются еще более страшные тайны...


Страна: Норвегия
Студия: Vidvinkel Film
Продолжительность: 01:22:05
Перевод: Любительский двухголосый, закадровый [DeadSno & den904]
Перевод на русский язык [Станислав Бельков]
Файл
Кодек: XviD
Качество: HDRip
Видео: 720x304 (2.35:1), 24 fps ~ 2113 Kbps
Звук: AC3, 48 KHz 6 ch ~ 448 Kb/s
Субтитры: отсутствуют

Скриншоты

MI:

Общее
Полное имя : Q:TorFThe.Veil.of.Twilight.2014.HDRip.avi
Формат : AVI
Формат/Информация : Audio Video Interleave
Размер файла : 1,47 Гбайт
Продолжительность : 1 ч. 22 м.
Общий поток : 2571 Кбит/сек
Программа кодирования : VirtualDubMod 1.5.10.2 (build 2542/release)
Библиотека кодирования : VirtualDubMod build 2542/release
Видео
Идентификатор : 0
Формат : MPEG-4 Visual
Профиль формата : Advanced Simple@L5
Параметр BVOP формата : 2
Параметр QPel формата : Нет
Параметр GMC формата : Без точки перехода
Параметр матрицы формата : Default (MPEG)
Идентификатор кодека : XVID
Идентификатор кодека/Подсказка : XviD
Продолжительность : 1 ч. 22 м.
Битрейт : 2113 Кбит/сек
Ширина : 720 пикселей
Высота : 304 пикселя
Соотношение сторон : 2,35:1
Частота кадров : 24,000 кадра/сек
Цветовое пространство : YUV
Субдискретизация насыщенности : 4:2:0
Битовая глубина : 8 бит
Тип развёртки : Прогрессивная
Метод сжатия : С потерями
Бит/(Пиксели*Кадры) : 0.402
Размер потока : 1,21 Гбайт (82%)
Библиотека кодирования : XviD 1.2.1 (UTC 2008-12-04)
Аудио
Идентификатор : 1
Формат : AC-3
Формат/Информация : Audio Coding 3
Расширение режима : CM (complete main)
Идентификатор кодека : 2000
Продолжительность : 1 ч. 22 м.
Вид битрейта : Постоянный
Битрейт : 448 Кбит/сек
Каналы : 6 каналов
Расположение каналов : Front: L C R, Side: L R, LFE
Частота : 48,0 КГц
Битовая глубина : 16 бит
Метод сжатия : С потерями
Размер потока : 263 Мбайт (17%)
Выравнивание : Разделение по промежуткам
Продолжительность промежутка : 42 мс. (1,00 видеокадр)
Время предзагрузки промежутка : 500 мс.
[Профиль] [ЛС]
Показать сообщения:    

Текущее время: Сегодня 18:35

Часовой пояс: GMT



Вы не можете начинать темы
Вы не можете отвечать на сообщения
Вы не можете редактировать свои сообщения
Вы не можете удалять свои сообщения
Вы не можете голосовать в опросах
Вы не можете прикреплять файлы к сообщениям
Вы не можете скачивать файлы