Сумасшедшие гонки / Herbie: Fully Loaded (2005) WEB-DLRip | D | iTunes

 
Автор Сообщение

BOSS ®

Пол:

Стаж: 2 года 1 месяц

Сообщений: 3732

Откуда: ODESSA



Награды: 20 (Подробнее)

Top Seeder 3 (Количество: 1) Top Seeder 2 (Количество: 1) Mega Seeder 1 (Количество: 1)
Торрент-статистика

Создавать темы 07-Апр-2015 09:35

[Цитировать]

Информация о фильме
Название: Сумасшедшие гонки
Оригинальное название: Herbie: Fully Loaded
Год выхода: 2005
Жанр: Комедия, приключения, семейный, спорт, фэнтези
Режиссёр: Анджела Робинсон
В ролях: Линдси Лохан, Майкл Китон, Мэтт Диллон, Брекин Мейер, Джастин Лонг, Шерил Хайнс, Джимми Симпсон, Джилл Ричи, Томас Леннон, Джереми Робертс
О фильме:
Херби — классический Фольксваген «Жук». Он немного странный, в его механическом теле живет нежная и ранимая душа романтика и мечта стать победителем самых престижных кольцевых гонок мира. Наконец его мечта приближается к реальности — знаменитая машина попадает на гонки NASCAR. Новая владелица Херби, обладающая вздорным нравом и желанием побеждать, мечтает о том же — теперь они готовы покорить эту головокружительную высоту вместе!

Производство: США, Robert Simonds Productions, Walt Disney Pictures
Продолжительность: 01:40:55
Перевод: Дублированный (Невафильм) | iTunes
Оригинальная аудио-дорожка: Нет
Файл
Кодек: XviD
Качество: WEB-DLRip [Исходник: WEB-DL (720p) от HDClub | iTunes]
Видео: XviD, 720x384 (1.875), 1681 Кбит/с, 23,976 кадр/с
Аудио: Русский, Dolby AC3, 48000 Гц, 384 Кбит/с, 6 каналов (5.1) - DUB [Невафильм]
Субтитры: Нет

MediaInfo

General
Complete name : Herbie.Fully.Loaded.2005.WEB-DLRip.avi
Format : AVI
Format/Info : Audio Video Interleave
File size : 1.46 GiB
Duration : 1h 41mn
Overall bit rate : 2 072 Kbps
Writing application : VirtualDubMod 1.5.10.3 | www.virtualdub-fr.org || (build 2550/release)
Writing library : VirtualDubMod build 2550/release
Copyright : rip by ivandubskoj
Video
ID : 0
Format : MPEG-4 Visual
Format profile : Advanced Simple@L5
Format settings, BVOP : 1
Format settings, QPel : No
Format settings, GMC : No warppoints
Format settings, Matrix : Custom
Codec ID : XVID
Codec ID/Hint : XviD
Duration : 1h 41mn
Bit rate : 1 681 Kbps
Width : 720 pixels
Height : 384 pixels
Display aspect ratio : 1.875
Frame rate : 23.976 fps
Color space : YUV
Chroma subsampling : 4:2:0
Bit depth : 8 bits
Scan type : Progressive
Compression mode : Lossy
Bits/(Pixel*Frame) : 0.254
Stream size : 1.19 GiB (81%)
Writing library : XviD 73
Audio
ID : 1
Format : AC-3
Format/Info : Audio Coding 3
Mode extension : CM (complete main)
Codec ID : 2000
Duration : 1h 40mn
Bit rate mode : Constant
Bit rate : 384 Kbps
Channel(s) : 6 channels
Channel positions : Front: L C R, Side: L R, LFE
Sampling rate : 48.0 KHz
Bit depth : 16 bits
Compression mode : Lossy
Stream size : 277 MiB (19%)
Alignment : Split accross interleaves
Interleave, duration : 64 ms (1.54 video frames)
Interleave, preload duration : 500 ms

Скриншоты



[Профиль] [ЛС]

Создавать темы 06-Авг-2015 22:37 (спустя 3 месяца 29 дней)

Топик был перенесен из форума Фильмы до 2014 года в форум Фильмы до 2012 года
sergej644
 
Кто просматривает тему:

Форум Тема Автор Размер
Индийское кино Веселая семейка снова в деле / Сумасшедшая Семейка 2 / Yamla Pagla Deewana 2 (2015) HDRip | P достали все 1.46 GB
Отечественная Классика Николай Васильевич Гоголь - Записки сумасшедшего [Креминский Дмитрий, 2008] Magnat 144 MB
Зарубежные Сумасшедшая езда 3Д / Drive Angry 3D (Патрик Люссье / Patrick Lussier) [2011, США, Фэнтези, Боевик, Триллер, Blu-ray Disc (Custom) 1080p] BD3D TorrentFilm 38.91 GB
Зарубежные Сумасшедшая езда в 3Д / Drive Angry 3D (Патрик Люссье / Patrick Lussier) [2010, Фэнтези, боевик, триллер, криминал, BDremux, 1080p] BD3D [Re-Encode - Left foreshortening first] TorrentFilm 35.99 GB
Фильмы 2014 года Сумасшедшие суки / Crazy Bitches (2014) WEB-DLRip | L2 достали все 1.46 GB
R.G.TorrentFilm Video Сумасшедший дом / Madhouse (Том Ропелевски) [1990 г., комедия, BDRip] [MVO, AVO] Bathory 1.46 GB
Фильмы 2011 года Сумасшедший дом / There Was a Little Girl (Овидио Г. Ассонитис)[1981, ужасы, DVDRip] | L1 sergej644 1.37 GB
Индийское кино Эта сумасшедшая молодежь / Yeh Jawaani Hai Deewani (2013) BDRip 720p | P, L Russian Mafia 9.6 GB
Показать сообщения:    

Текущее время: Сегодня 14:28

Часовой пояс: GMT



Вы не можете начинать темы
Вы не можете отвечать на сообщения
Вы не можете редактировать свои сообщения
Вы не можете удалять свои сообщения
Вы не можете голосовать в опросах
Вы не можете прикреплять файлы к сообщениям
Вы не можете скачивать файлы