Судья / The Judge (2014) BDRip 1080p от ExKinoRay | iTunes Russia

 
Автор Сообщение

sergej644 ®

Пол:

Стаж: 4 года 11 месяцев

Сообщений: 6038

Откуда: Soviet Union



Награды: Нет

Торрент-статистика

Создавать темы 15-Янв-2015 16:16

[Цитировать]

Информация о фильме
Название: Судья
Оригинальное название: The Judge
Год выпуска: 2014
Жанр: Драма
Выпущено: США, Warner Bros., Big Kid Pictures, Team Downey
Режиссер: Дэвид Добкин
В ролях: Роберт Дауни мл., Роберт Дювалл, Лейтон Мистер, Вера Фармига, Билли Боб Торнтон, Винсент Д’Онофрио, Дэкс Шепард, Сара Ланкастер, Дэвид Крамхолц, Эмма Трамбле
О фильме: Успешный адвокат возвращается в родной город на похороны своей матери и узнаёт, что его страдающего болезнью Альцгеймера отца, городского судью, подозревают в убийстве. Герой решает задержаться, чтобы выяснить правду, и постепенно лучше узнаёт родственников, с которыми давно вообще никак не общался.

Файл
Качество: BDRip (1080p)
Видео: MPEG-4 AVC, 13333 Кбит/с, 1920x800, 23.976 кадр/с
Аудио: Русский (AC3, 6 ch, 384 Кбит/с), английский (DTS, 6 ch, 1509 Кбит/c)
Размер: 15.05 ГБ
Продолжительность: 02:21:26
Перевод: Дублированный
Субтитры: Русские, украинские, английские
Сохранены оригинальные чаптеры как на Blu-Ray.
Озвучивание - Дублированное (iTunes Russia)

x264

x264 [info]: frame I:1675 Avg QP:15.61 size:246275
x264 [info]: frame P:38486 Avg QP:18.11 size:119642
x264 [info]: frame B:163434 Avg QP:20.39 size: 55856
x264 [info]: consecutive B-frames: 1.4% 1.2% 3.4% 17.8% 17.0% 29.8% 10.5% 14.3% 3.1% 1.6%
x264 [info]: mb I I16..4: 15.5% 63.9% 20.6%
x264 [info]: mb P I16..4: 1.8% 30.3% 1.7% P16..4: 22.0% 26.5% 7.8% 2.6% 0.1% skip: 7.1%
x264 [info]: mb B I16..4: 0.2% 5.4% 0.1% B16..8: 36.5% 21.6% 4.4% direct: 9.4% skip:22.3% L0:42.9% L1:38.9% BI:18.2%
x264 [info]: 8x8 transform intra:89.4% inter:44.6%
x264 [info]: direct mvs spatial:99.0% temporal:1.0%
x264 [info]: coded y,uvDC,uvAC intra: 94.2% 94.1% 84.2% inter: 44.0% 37.0% 15.7%
x264 [info]: i16 v,h,dc,p: 57% 9% 12% 22%
x264 [info]: i8 v,h,dc,ddl,ddr,vr,hd,vl,hu: 8% 7% 16% 11% 13% 11% 11% 11% 12%
x264 [info]: i4 v,h,dc,ddl,ddr,vr,hd,vl,hu: 10% 9% 9% 9% 14% 13% 12% 11% 13%
x264 [info]: i8c dc,h,v,p: 57% 13% 13% 17%
x264 [info]: Weighted P-Frames: Y:7.5% UV:3.5%
x264 [info]: ref P L0: 43.4% 8.6% 27.9% 9.3% 10.2% 0.5% 0.0%
x264 [info]: ref B L0: 78.5% 15.8% 4.3% 1.3%
x264 [info]: ref B L1: 93.3% 6.7%
x264 [info]: kb/s:13326.90

Инфо-файл

Общее
Уникальный идентификатор : 201939738477667230552137520723198799076 (0x97EC2DCE5452FDFC8DA234AEB5E4ECE4)
Полное имя : D:ЗагрузкиThe.Judge.2014.x264.BDRip.(1080p).ExKinoRay.mkv
Формат : Matroska
Версия формата : Version 2
Размер файла : 15,0 Гбайт
Продолжительность : 2 ч. 21 м.
Общий поток : 15,2 Мбит/сек
Название фильма : Судья.2014.Rip by: ollan
Дата кодирования : UTC 2015-01-15 11:55:34
Программа кодирования : mkvmerge v5.6.0 ('Kenya Kane') built on May 27 2012 16:44:04
Библиотека кодирования : libebml v1.2.3 + libmatroska v1.3.0
Видео
Идентификатор : 1
Формат : AVC
Формат/Информация : Advanced Video Codec
Профиль формата : High@L4.1
Параметр CABAC формата : Да
Параметр ReFrames формата : 5 кадров
Идентификатор кодека : V_MPEG4/ISO/AVC
Продолжительность : 2 ч. 21 м.
Битрейт : 13,3 Мбит/сек
Ширина : 1920 пикселей
Высота : 800 пикселей
Соотношение сторон : 2,40:1
Режим частоты кадров : Постоянный
Частота кадров : 23,976 кадра/сек
Цветовое пространство : YUV
Субдискретизация насыщенности : 4:2:0
Битовая глубина : 8 бит
Тип развёртки : Прогрессивная
Бит/(Пиксели*Кадры) : 0.362
Размер потока : 12,9 Гбайт (86%)
Библиотека кодирования : x264 core 125 r2200 999b753
Настройки программы : cabac=1 / ref=5 / deblock=1:-3:-3 / analyse=0x3:0x133 / me=umh / subme=11 / psy=1 / psy_rd=1.00:0.10 / mixed_ref=1 / me_range=32 / chroma_me=1 / trellis=2 / 8x8dct=1 / cqm=0 / deadzone=21,11 / fast_pskip=0 / chroma_qp_offset=-3 / threads=12 / lookahead_threads=2 / sliced_threads=0 / nr=0 / decimate=0 / interlaced=0 / bluray_compat=0 / constrained_intra=0 / bframes=9 / b_pyramid=2 / b_adapt=2 / b_bias=0 / direct=3 / weightb=1 / open_gop=0 / weightp=2 / keyint=240 / keyint_min=23 / scenecut=40 / intra_refresh=0 / rc=2pass / mbtree=0 / bitrate=13333 / ratetol=1.0 / qcomp=0.60 / qpmin=0 / qpmax=69 / qpstep=4 / cplxblur=20.0 / qblur=0.5 / ip_ratio=1.40 / pb_ratio=1.30 / aq=1:1.00
Язык : English
Default : Да
Forced : Нет
Аудио #1
Идентификатор : 2
Формат : AC-3
Формат/Информация : Audio Coding 3
Расширение режима : CM (complete main)
Параметр Endianness формата : Big
Идентификатор кодека : A_AC3
Продолжительность : 2 ч. 21 м.
Вид битрейта : Постоянный
Битрейт : 384 Кбит/сек
Каналы : 6 каналов
Расположение каналов : Front: L C R, Side: L R, LFE
Частота : 48,0 КГц
Битовая глубина : 16 бит
Метод сжатия : С потерями
Размер потока : 389 Мбайт (3%)
Заголовок : Дублированный (iTunes Russia)
Язык : Russian
Default : Да
Forced : Нет
Аудио #2
Идентификатор : 3
Формат : DTS
Формат/Информация : Digital Theater Systems
Режим : 16
Параметр Endianness формата : Big
Идентификатор кодека : A_DTS
Продолжительность : 2 ч. 21 м.
Вид битрейта : Постоянный
Битрейт : 1509 Кбит/сек
Каналы : 6 каналов
Расположение каналов : Front: L C R, Side: L R, LFE
Частота : 48,0 КГц
Битовая глубина : 16 бит
Метод сжатия : С потерями
Размер потока : 1,49 Гбайт (10%)
Язык : English
Default : Нет
Forced : Нет
Текст #1
Идентификатор : 4
Формат : UTF-8
Идентификатор кодека : S_TEXT/UTF8
Идентификатор кодека/Информация : UTF-8 Plain Text
Заголовок : Forced
Язык : Russian
Default : Да
Forced : Нет
Текст #2
Идентификатор : 5
Формат : UTF-8
Идентификатор кодека : S_TEXT/UTF8
Идентификатор кодека/Информация : UTF-8 Plain Text
Заголовок : Full
Язык : Russian
Default : Нет
Forced : Нет
Текст #3
Идентификатор : 6
Формат : UTF-8
Идентификатор кодека : S_TEXT/UTF8
Идентификатор кодека/Информация : UTF-8 Plain Text
Заголовок : Full
Язык : Ukrainian
Default : Нет
Forced : Нет
Текст #4
Идентификатор : 7
Формат : UTF-8
Идентификатор кодека : S_TEXT/UTF8
Идентификатор кодека/Информация : UTF-8 Plain Text
Заголовок : SDH
Язык : English
Default : Нет
Forced : Нет
Меню
00:00:00.000 : en:Chapter 01
00:05:00.000 : en:Chapter 02
00:10:00.000 : en:Chapter 03
00:15:00.000 : en:Chapter 04
00:20:00.000 : en:Chapter 05
00:25:00.000 : en:Chapter 06
00:30:00.000 : en:Chapter 07
00:35:00.000 : en:Chapter 08
00:40:00.000 : en:Chapter 09
00:45:00.000 : en:Chapter 10
00:50:00.000 : en:Chapter 11
00:55:00.000 : en:Chapter 12
01:00:00.000 : en:Chapter 13
01:05:00.000 : en:Chapter 14
01:10:00.000 : en:Chapter 15
01:15:00.000 : en:Chapter 16
01:20:00.000 : en:Chapter 17
01:25:00.000 : en:Chapter 18
01:30:00.000 : en:Chapter 19
01:35:00.000 : en:Chapter 20
01:40:00.000 : en:Chapter 21
01:45:00.000 : en:Chapter 22
01:50:00.000 : en:Chapter 23
01:55:00.000 : en:Chapter 24
02:00:00.000 : en:Chapter 25
02:05:00.000 : en:Chapter 26
02:10:00.000 : en:Chapter 27
02:15:00.000 : en:Chapter 28
02:20:00.000 : en:Chapter 29

Скриншоты



Релиз от: Rip by:
[Профиль] [ЛС]
Показать сообщения:    

Текущее время: Сегодня 00:10

Часовой пояс: GMT



Вы не можете начинать темы
Вы не можете отвечать на сообщения
Вы не можете редактировать свои сообщения
Вы не можете удалять свои сообщения
Вы не можете голосовать в опросах
Вы не можете прикреплять файлы к сообщениям
Вы не можете скачивать файлы