Судья Дредд / Judge Dredd (1995) BDRip 720p

 
Автор Сообщение

Russian Mafia ®

Пол:

Стаж: 1 год 8 месяцев

Сообщений: 4257



Награды: 10 (Подробнее)

Mega Seeder 2 (Количество: 1) За внесенный вклад в развитие сайта (Количество: 1) Mega Seeder 5 (Количество: 1)
Торрент-статистика

Создавать темы 09-Сен-2015 13:31

[Цитировать]

Информация о фильме
Название: Судья Дредд
Оригинальное название: Judge Dredd
Год выхода: 1995
Жанр: фантастика, боевик, триллер, криминал
Режиссер: Дэнни Кэннон /Danny Cannon/
В ролях: Сильвестр Сталлоне /Sylvester Stallone/, Арманд Ассанте /Armand Assante/, Макс фон Сюдов /Max von Sydow/, Роб Шнайдер /Rob Schneider/, Джоэнна Майлз /Joanna Miles/, Бальтазар Гетти /Balthazar Getty/, Юрген Прохнов /Jürgen Prochnow/, Морис Роевз /Maurice Roëves/, Дайан Лэйн /Diane Lane/, Джоан Чэнь /Joan Chen/...
О фильме:
В третьем тысячелетии мир переменился. Климат, народы — все перевернулось... Земля превратилась в ядовитую, выжженную пустыню, которую стали называть «Проклятая земля». Миллионы людей сосредоточились в нескольких огромных городах, на улицах которых царили хаос и преступники. Система правосудия не смогла справиться с анархией, и был создан новый порядок — элитные подразделения, которые сами задерживали, судили, выносили приговор и приводили его в исполнение. Их называли Судьями.

Страна: США
Продолжительность: 01:36:08
Перевод: Русский профессиональный, многоголосый (Twister) + Украинский профессиональный, многоголосый (ICTV) + Оригинальная, английская дорожка
Файл
Кодек: MKV, x.264
Качество: BDRip 720p (Source: Blu-ray Disc)
Видео: 5872 kbps; 0.348 bit/pixel; 1280 x 550; 2.35:1; 23.976 fps
Звук #1: AC3 Dolby Digital; 448.00 kbps, 6 Ch - RUS MVO Twister
Звук #2: AC3 Dolby Digital; 192.00 kbps, 2 Ch - UKR MVO ICTV
Звук #3: AC3 Dolby Digital; 640.00 kbps, 6 Ch - ENG
Субтитры: Русские, Английские.
Субтитры: Русские (полные, форсированные), Английские. (отдельно)

MediaInfo

General
Unique ID : 214219636554559980270922026006867579199 (0xA12933868967E225A2BF864D0BFB913F)
Complete name : Sudya.Dredd.1995.TRIPLE.BDRip.720p.AC3.-HQ-ViDEO.mkv
Format : Matroska
Format version : Version 2
File size : 4.80 GiB
Duration : 1h 36mn
Overall bit rate : 7 149 Kbps
Movie name : Judge Dredd (1995) / Release by HQ-ViDEO
Encoded date : UTC 2012-12-05 00:23:11
Writing application : mkvmerge v5.8.0 ('No Sleep / Pillow') built on Sep 2 2012 15:37:04
Writing library : libebml v1.2.3 + libmatroska v1.3.0
Video
ID : 1
Format : AVC
Format/Info : Advanced Video Codec
Format profile : High@L4.1
Format settings, CABAC : Yes
Format settings, ReFrames : 11 frames
Codec ID : V_MPEG4/ISO/AVC
Duration : 1h 36mn
Bit rate : 5 872 Kbps
Width : 1 280 pixels
Height : 550 pixels
Display aspect ratio : 2.35:1
Frame rate : 23.976 fps
Color space : YUV
Chroma subsampling : 4:2:0
Bit depth : 8 bits
Scan type : Progressive
Bits/(Pixel*Frame) : 0.348
Stream size : 3.85 GiB (80%)
Title : Judge Dredd (1995)
Writing library : x264 core 112 r1834 a51816a
Encoding settings : cabac=1 / ref=11 / deblock=1:-3:-3 / analyse=0x3:0x133 / me=umh / subme=10 / psy=1 / psy_rd=1.00:0.00 / mixed_ref=1 / me_range=48 / chroma_me=1 / trellis=2 / 8x8dct=1 / cqm=0 / deadzone=21,11 / fast_pskip=1 / chroma_qp_offset=-2 / threads=6 / sliced_threads=0 / nr=0 / decimate=1 / interlaced=0 / constrained_intra=0 / bframes=6 / b_pyramid=2 / b_adapt=2 / b_bias=0 / direct=3 / weightb=1 / open_gop=0 / weightp=2 / keyint=250 / keyint_min=23 / scenecut=40 / intra_refresh=0 / rc_lookahead=40 / rc=2pass / mbtree=1 / bitrate=5872 / ratetol=1.0 / qcomp=0.60 / qpmin=0 / qpmax=51 / qpstep=4 / cplxblur=20.0 / qblur=0.5 / ip_ratio=1.40 / aq=1:1.00
Language : English
Default : Yes
Forced : No
Audio #1
ID : 2
Format : AC-3
Format/Info : Audio Coding 3
Mode extension : CM (complete main)
Codec ID : A_AC3
Duration : 1h 36mn
Bit rate mode : Constant
Bit rate : 448 Kbps
Channel(s) : 6 channels
Channel positions : Front: L C R, Side: L R, LFE
Sampling rate : 48.0 KHz
Bit depth : 16 bits
Compression mode : Lossy
Stream size : 310 MiB (9%)
Title : MVO Twister
Language : Russian
Default : Yes
Forced : No
Audio #2
ID : 3
Format : AC-3
Format/Info : Audio Coding 3
Mode extension : CM (complete main)
Codec ID : A_AC3
Duration : 1h 36mn
Bit rate mode : Constant
Bit rate : 192 Kbps
Channel(s) : 2 channels
Channel positions : Front: L C R, Side: L R, LFE
Sampling rate : 48.0 KHz
Bit depth : 16 bits
Compression mode : Lossy
Stream size : 132 MiB (9%)
Title : UKR MVO ICTV
Language : Ukrainian
Default : No
Forced : No
Audio #3
ID : 4
Format : AC-3
Format/Info : Audio Coding 3
Mode extension : CM (complete main)
Codec ID : A_AC3
Duration : 1h 36mn
Bit rate mode : Constant
Bit rate : 640 Kbps
Channel(s) : 6 channels
Channel positions : Front: L C R, Side: L R, LFE
Sampling rate : 48.0 KHz
Bit depth : 16 bits
Compression mode : Lossy
Stream size : 440 MiB (9%)
Title : Original
Language : English
Default : No
Forced : No
Text #1
ID : 5
Format : UTF-8
Codec ID : S_TEXT/UTF8
Codec ID/Info : UTF-8 Plain Text
Language : Russian
Default : Yes
Forced : No
Text #2
ID : 6
Format : UTF-8
Codec ID : S_TEXT/UTF8
Codec ID/Info : UTF-8 Plain Text
Language : English
Default : No
Forced : No
Menu
00:00:00.000 : en:00:00:00.000
00:02:17.346 : en:00:02:17.346
00:06:15.667 : en:00:06:15.667
00:09:50.006 : en:00:09:50.006
00:12:05.600 : en:00:12:05.600
00:15:39.105 : en:00:15:39.105
00:17:38.557 : en:00:17:38.557
00:20:55.129 : en:00:20:55.129
00:22:54.039 : en:00:22:54.039
00:27:59.970 : en:00:27:59.970
00:30:25.115 : en:00:30:25.115
00:35:43.850 : en:00:35:43.850
00:40:55.745 : en:00:40:55.745
00:43:56.676 : en:00:43:56.676
00:47:44.320 : en:00:47:44.320
00:55:22.194 : en:00:55:22.194
01:00:25.455 : en:01:00:25.455
01:03:07.701 : en:01:03:07.701
01:08:36.821 : en:01:08:36.821
01:14:08.110 : en:01:14:08.110
01:18:54.146 : en:01:18:54.146
01:23:53.654 : en:01:23:53.654
01:28:10.202 : en:01:28:10.202
01:30:24.836 : en:01:30:24.836

Скриншоты




[Профиль] [ЛС]
Показать сообщения:    

Текущее время: Сегодня 10:08

Часовой пояс: GMT



Вы не можете начинать темы
Вы не можете отвечать на сообщения
Вы не можете редактировать свои сообщения
Вы не можете удалять свои сообщения
Вы не можете голосовать в опросах
Вы не можете прикреплять файлы к сообщениям
Вы не можете скачивать файлы