Судьба Марии (Дмитрий Булин) [2012, Россия, мелодрама, HDTV 1080i]

 
Автор Сообщение

TorrentFilm ®

Пол:

Стаж: 2 года

Сообщений: 7741



Награды: Нет

Торрент-статистика

Создавать темы 01-Янв-2016 00:12

[Цитировать]

Судьба Марии
Жанр: мелодрама
Год выпуска: 2012
Продолжительность: 01:29:47
Режиссёр: Дмитрий Булин
В ролях: Екатерина Решетникова, Евгений Пронин, Александр Константинов, Елена Великанова, Надежда Маркина, Петар Зекавица, Ольга Сташкевич, Алиса Майорова, Саша Булатов, Никита Тезов, Антон Батырев, Сергей Тезов, Станислав Курач, Валерий Скорокосов, Александра Николаева, Оксана Гуляева, Олеся Абрамова
Описание: Муж Марии трагически погиб, оставив ее в непомерных долгах и с двумя маленькими детьми на руках. Героиня пытается найти средства к существованию, но тщетно – кредиторы требуют возврата денег, и Мария с детьми вот-вот окажется на улице. Неожиданно бывшая подруга делает ей необычное предложение, приняв которое, удастся решить все проблемы и начать новую жизнь. Героиня должна выносить чужого ребенка и родить его для чужой семьи…
Доп. информация: Запись чистая. Без посторонних надписей. Выкладывается, как есть.
Семпл: http://multi-up.com/838340
Качество видео: HDTV 1080i
Формат видео: MPEG-TS
Видео: AVC, 1920x1080 (16:9), 25 fps, 7853 Kbps, 0.151 bit/pixel
Аудио: MPEG Audio, 48 kHz, stereo, 192 Kbps

MediaInfo

GeneralID : 1 (0x1)Complete name : Судьба Марии (2012, Мелодрама, HDTV) (MYDIMKA).tsFormat : MPEG-TSFile size : 5.30 GiBDuration : 1h 29mnOverall bit rate mode : VariableOverall bit rate : 8 446 Kbps
VideoID : 2911 (0xB5F)Menu ID : 1 (0x1)Format : AVCFormat/Info : Advanced Video CodecFormat profile : High@L4.0Format settings, CABAC : YesFormat settings, ReFrames : 4 framesCodec ID : 27Duration : 1h 29mnBit rate : 7 835 KbpsWidth : 1 920 pixelsHeight : 1 080 pixelsDisplay aspect ratio : 16:9Frame rate : 25.000 fpsColor space : YUVChroma subsampling : 4:2:0Bit depth : 8 bitsScan type : MBAFFBits/(Pixel*Frame) : 0.151Stream size : 4.91 GiB (93%)
AudioID : 2912 (0xB60)Menu ID : 1 (0x1)Format : MPEG AudioFormat version : Version 1Format profile : Layer 2Codec ID : 3Duration : 1h 29mnBit rate mode : ConstantBit rate : 192 KbpsChannel(s) : 2 channelsSampling rate : 48.0 KHzCompression mode : LossyStream size : 123 MiB (2%)Language : Russian

Скриншот c названием фильма

Скриншоты


[Профиль] [ЛС]
Показать сообщения:    

Текущее время: Сегодня 18:35

Часовой пояс: GMT



Вы не можете начинать темы
Вы не можете отвечать на сообщения
Вы не можете редактировать свои сообщения
Вы не можете удалять свои сообщения
Вы не можете голосовать в опросах
Вы не можете прикреплять файлы к сообщениям
Вы не можете скачивать файлы