Судная ночь 3 / The Purge: Election Year (2016) BDRip 1080p | iTunes

 
Автор Сообщение

Russian Mafia ®

Пол:

Стаж: 1 год 8 месяцев

Сообщений: 4256



Награды: 10 (Подробнее)

Mega Seeder 4 (Количество: 1) Top Releaser 3 (Количество: 1) Top Releaser 2 (Количество: 1)
Торрент-статистика

Создавать темы 28-Сен-2016 06:12

[Цитировать]

Информация о фильме
Название: Судная ночь 3
Оригинальное название: The Purge: Election Year
Год выхода: 2016
Жанр: Ужасы, фантастика, боевик, триллер
Режиссер: Джеймс ДеМонако
В ролях: Фрэнк Грилло, Элизабет Митчелл, Майкелти Уильямсон, Джозеф Джулиан Сория, Бетти Гэбриел, Терри Серпико, Эдвин Ходж, Кайл Сикор, Бэрри Нолан, Лиза Колон-Зайас
О фильме:
Добро пожаловать в идеальное будущее, в котором Судная ночь превратилась в международный тренд. Туристы со всего мира прибывают в аэропорты Америки: ведь всего лишь раз в году здесь позволено все, главное — дожить до рассвета.
Страна: США, Франция
Продолжительность: 01:48:48
Перевод: Дубляж | iTunes
Файл
Кодек: x264
Качество: BDRip 1080p
Видео: 1920x800 (16:9), 23.976 fps, 9 500 kb/s
Звук:
AC-3, 6 ch, 384 kbps (Rus) Дубляж
AC-3, 6 ch, 448 kbps (Rus) Английский
Субтитры: Русские (Форсированные), Английские

Скриншоты

MI

x264 [info]: frame I:2800 Avg QP:18.26 size:150288
x264 [info]: frame P:125437 Avg QP:20.71 size: 54278
x264 [info]: frame B:28269 Avg QP:21.74 size: 18377
____________________________________________________
General
Unique ID : 194325889378656644747587661509556784684 (0x9231CE100CCD1910AAD5DA2A60994E2C)
Complete name : C:The.Purge.Election.Year.2016.BDRip.1080p.mkv
Format : Matroska
Format version : Version 4 / Version 2
File size : 7.85 GiB
Duration : 1 h 48 min
Overall bit rate : 10.3 Mb/s
Encoded date : UTC 2016-09-28 04:11:41
Writing application : mkvmerge v9.4.2 ('So High') 64bit
Writing library : libebml v1.3.4 + libmatroska v1.4.5
Video
ID : 1
Format : AVC
Format/Info : Advanced Video Codec
Format profile : High@L4.1
Format settings, CABAC : Yes
Format settings, ReFrames : 5 frames
Codec ID : V_MPEG4/ISO/AVC
Duration : 1 h 48 min
Bit rate : 9 500 kb/s
Width : 1 920 pixels
Height : 800 pixels
Display aspect ratio : 2.40:1
Frame rate mode : Constant
Frame rate : 23.976 (24000/1001) FPS
Color space : YUV
Chroma subsampling : 4:2:0
Bit depth : 8 bits
Scan type : Progressive
Bits/(Pixel*Frame) : 0.258
Stream size : 7.22 GiB (92%)
Writing library : x264 core 148 r2638 7599210
Encoding settings : cabac=1 / ref=5 / deblock=1:-3:-3 / analyse=0x3:0x133 / me=umh / subme=11 / psy=1 / psy_rd=1.00:0.00 / mixed_ref=1 / me_range=32 / chroma_me=1 / trellis=2 / 8x8dct=1 / cqm=0 / deadzone=21,11 / fast_pskip=0 / chroma_qp_offset=-2 / threads=12 / lookahead_threads=1 / sliced_threads=0 / nr=0 / decimate=1 / interlaced=0 / bluray_compat=0 / constrained_intra=0 / bframes=9 / b_pyramid=2 / b_adapt=1 / b_bias=0 / direct=3 / weightb=1 / open_gop=0 / weightp=2 / keyint=240 / keyint_min=23 / scenecut=40 / intra_refresh=0 / rc_lookahead=0 / rc=2pass / mbtree=0 / bitrate=9500 / ratetol=1.0 / qcomp=0.60 / qpmin=0 / qpmax=69 / qpstep=4 / cplxblur=20.0 / qblur=0.5 / vbv_maxrate=62500 / vbv_bufsize=78125 / nal_hrd=none / filler=0 / ip_ratio=1.40 / pb_ratio=1.30 / aq=1:1.00
Language : English
Default : Yes
Forced : No
Audio #1
ID : 2
Format : AC-3
Format/Info : Audio Coding 3
Mode extension : CM (complete main)
Format settings, Endianness : Big
Codec ID : A_AC3
Duration : 1 h 48 min
Bit rate mode : Constant
Bit rate : 384 kb/s
Channel(s) : 6 channels
Channel positions : Front: L C R, Side: L R, LFE
Sampling rate : 48.0 kHz
Frame rate : 31.250 FPS (1536 spf)
Compression mode : Lossy
Stream size : 299 MiB (4%)
Title : Дубляж, iTunes
Language : Russian
Default : Yes
Forced : No
Audio #2
ID : 3
Format : AC-3
Format/Info : Audio Coding 3
Mode extension : CM (complete main)
Format settings, Endianness : Big
Codec ID : A_AC3
Duration : 1 h 48 min
Bit rate mode : Constant
Bit rate : 448 kb/s
Channel(s) : 6 channels
Channel positions : Front: L C R, Side: L R, LFE
Sampling rate : 48.0 kHz
Frame rate : 31.250 FPS (1536 spf)
Compression mode : Lossy
Stream size : 349 MiB (4%)
Language : English
Default : No
Forced : No
Text #1
ID : 4
Format : UTF-8
Codec ID : S_TEXT/UTF8
Codec ID/Info : UTF-8 Plain Text
Duration : 1 h 39 min
Bit rate : 0 b/s
Count of elements : 9
Stream size : 360 Bytes (0%)
Title : Forced
Language : Russian
Default : Yes
Forced : Yes
Text #2
ID : 5
Format : UTF-8
Codec ID : S_TEXT/UTF8
Codec ID/Info : UTF-8 Plain Text
Duration : 1 h 42 min
Bit rate : 53 b/s
Count of elements : 1250
Stream size : 39.7 KiB (0%)
Language : English
Default : No
Forced : No
Menu
00:00:00.000 : en:00:00:00.000
00:05:47.347 : en:00:05:47.347
00:09:21.978 : en:00:09:21.978
00:17:15.618 : en:00:17:15.618
00:22:49.493 : en:00:22:49.493
00:28:43.180 : en:00:28:43.180
00:35:58.490 : en:00:35:58.490
00:41:50.508 : en:00:41:50.508
00:47:03.112 : en:00:47:03.112
00:53:30.374 : en:00:53:30.374
00:57:31.531 : en:00:57:31.531
01:02:20.820 : en:01:02:20.820
01:10:43.614 : en:01:10:43.614
01:17:32.731 : en:01:17:32.731
01:22:16.765 : en:01:22:16.765
01:27:03.093 : en:01:27:03.093
01:32:12.819 : en:01:32:12.819
01:36:17.480 : en:01:36:17.480
01:41:35.715 : en:01:41:35.715
01:43:36.752 : en:01:43:36.752
[Профиль] [ЛС]
Показать сообщения:    

Текущее время: Сегодня 04:21

Часовой пояс: GMT



Вы не можете начинать темы
Вы не можете отвечать на сообщения
Вы не можете редактировать свои сообщения
Вы не можете удалять свои сообщения
Вы не можете голосовать в опросах
Вы не можете прикреплять файлы к сообщениям
Вы не можете скачивать файлы