Судная ночь 3 / The Purge: Election Year (2016) BDRip 720p | iTunes

 
Автор Сообщение

Russian Mafia ®

Пол:

Стаж: 1 год 8 месяцев

Сообщений: 4256



Награды: 10 (Подробнее)

Mega Seeder 3 (Количество: 1) Top Releaser 4 (Количество: 1) Top Releaser 3 (Количество: 1)
Торрент-статистика

Создавать темы 22-Сен-2016 05:18

[Цитировать]

Судная ночь 3 / The Purge: Election Year
Страна: Франция США
Производство: Universal Pictures, Platinum Dunes, Blumhouse Productions, Why Not Productions
Год выпуска: 2016
Жанр: ужасы, фантастика, боевик, триллер
Продолжительность: 01:48:48
Режиссер: Джеймс ДеМонако
Автор сценария: Джеймс ДеМонако
В ролях: Фрэнк Грилло, Элизабет Митчелл, Майкелти Уильямсон, Джозеф Джулиан Сория, Бетти Гэбриел, Терри Серпико, Эдвин Ходж, Кайл Сикор
Описание: Добро пожаловать в идеальное будущее, в котором Судная ночь превратилась в международный тренд. Туристы со всего мира прибывают в аэропорты Америки: ведь всего лишь раз в году здесь позволено все, главное — дожить до рассвета...

Перевод: Профессиональный (полное дублирование) | iTunes
Субтитры: нет-Качество: BDRip 720p
Формат: МКV
Видео кодек: AVC
Аудио кодек: АС3 | DTS
Видео: 1280x536 (2.40:1), 23.976 fps, MPEG-4 AVC ~5 681 kbps avg
Аудио №1: 48.0 kHz, AC3 Dolby Digital, 3/2 (L,C,R,l,r) + LFE ch, ~384 kbps | RUS
Аудио №2: 48.0 kHz, Digital Theater Systems, 3/2 (L,C,R,l,r) + LFE ch, ~1509 kbps | ENG
Бюджет: $10 000 000
Дата премьеры (мир): 29 июня 2016
Дата премьеры (РФ): 28 июля 2016, «UPI»

Media Info

General
Unique ID : 190258138227611232229291085396949181860 (0x8F2262725DCA11F7814DEE0A4CE9A5A4)
Complete name : SudNa.NoCh.3.2O16.D.BDRip.72Op.mkv
Format : Matroska
Format version : Version 2
File size : 5.75 GiB
Duration : 1h 48mn
Overall bit rate : 7 573 Kbps
Encoded date : UTC 2016-09-21 21:22:47
Writing application : mkvmerge v8.3.0 ('Over the Horizon') 64bit
Writing library : libebml v1.3.1 + libmatroska v1.4.2
Video
ID : 1
Format : AVC
Format/Info : Advanced Video Codec
Format profile : High@L4.1
Format settings, CABAC : Yes
Format settings, ReFrames : 5 frames
Codec ID : V_MPEG4/ISO/AVC
Duration : 1h 48mn
Bit rate : 5 681 Kbps
Width : 1 280 pixels
Height : 536 pixels
Display aspect ratio : 2.40:1
Frame rate mode : Constant
Frame rate : 23.976 fps
Color space : YUV
Chroma subsampling : 4:2:0
Bit depth : 8 bits
Scan type : Progressive
Bits/(Pixel*Frame) : 0.345
Stream size : 4.20 GiB (73%)
Writing library : x264 core 148 r2692 64f4e24
Encoding settings : cabac=1 / ref=5 / deblock=1:0:0 / analyse=0x3:0x133 / me=umh / subme=7 / psy=1 / psy_rd=1.00:0.00 / mixed_ref=1 / me_range=16 / chroma_me=1 / trellis=1 / 8x8dct=1 / cqm=0 / deadzone=21,11 / fast_pskip=0 / chroma_qp_offset=-2 / threads=17 / lookahead_threads=2 / sliced_threads=0 / nr=0 / decimate=1 / interlaced=0 / bluray_compat=0 / constrained_intra=0 / bframes=3 / b_pyramid=2 / b_adapt=1 / b_bias=0 / direct=1 / weightb=1 / open_gop=0 / weightp=2 / keyint=250 / keyint_min=23 / scenecut=40 / intra_refresh=0 / rc_lookahead=40 / rc=2pass / mbtree=1 / bitrate=5681 / ratetol=1.0 / qcomp=0.60 / qpmin=0 / qpmax=69 / qpstep=4 / cplxblur=20.0 / qblur=0.5 / ip_ratio=1.40 / aq=1:1.00
Language : English
Default : Yes
Forced : No
Audio #1
ID : 2
Format : AC-3
Format/Info : Audio Coding 3
Mode extension : CM (complete main)
Format settings, Endianness : Big
Codec ID : A_AC3
Duration : 1h 48mn
Bit rate mode : Constant
Bit rate : 384 Kbps
Channel(s) : 6 channels
Channel positions : Front: L C R, Side: L R, LFE
Sampling rate : 48.0 KHz
Bit depth : 16 bits
Compression mode : Lossy
Delay relative to video : 19ms
Stream size : 299 MiB (5%)
Language : Russian
Default : Yes
Forced : Yes
Audio #2
ID : 3
Format : DTS
Format/Info : Digital Theater Systems
Mode : 16
Format settings, Endianness : Big
Codec ID : A_DTS
Duration : 1h 48mn
Bit rate mode : Constant
Bit rate : 1 509 Kbps
Channel(s) : 6 channels
Channel positions : Front: L C R, Side: L R, LFE
Sampling rate : 48.0 KHz
Bit depth : 24 bits
Compression mode : Lossy
Stream size : 1.15 GiB (20%)
Language : English
Default : No
Forced : No
Menu
00:00:00.000 : en:00:00:00.000
00:05:47.347 : en:00:05:47.347
00:09:21.978 : en:00:09:21.978
00:17:15.618 : en:00:17:15.618
00:22:49.493 : en:00:22:49.493
00:28:43.180 : en:00:28:43.180
00:35:58.490 : en:00:35:58.490
00:41:50.508 : en:00:41:50.508
00:47:03.112 : en:00:47:03.112
00:53:30.374 : en:00:53:30.374
00:57:31.531 : en:00:57:31.531
01:02:20.820 : en:01:02:20.820
01:10:43.614 : en:01:10:43.614
01:17:32.731 : en:01:17:32.731
01:22:16.765 : en:01:22:16.765
01:27:03.093 : en:01:27:03.093
01:32:12.819 : en:01:32:12.819
01:36:17.480 : en:01:36:17.480
01:41:35.715 : en:01:41:35.715
01:43:36.752 : en:01:43:36.752

Скриншоты

[Профиль] [ЛС]
Показать сообщения:    

Текущее время: Сегодня 02:24

Часовой пояс: GMT



Вы не можете начинать темы
Вы не можете отвечать на сообщения
Вы не можете редактировать свои сообщения
Вы не можете удалять свои сообщения
Вы не можете голосовать в опросах
Вы не можете прикреплять файлы к сообщениям
Вы не можете скачивать файлы