Судная ночь 2 / The Purge: Anarchy (2014) HDRip

 
Автор Сообщение

sergej644 ®

Пол:

Стаж: 4 года 11 месяцев

Сообщений: 6037

Откуда: Soviet Union



Награды: Нет

Торрент-статистика

Создавать темы 11-Окт-2014 11:52

[Цитировать]

-Судная ночь 2 / The Purge: Anarchy (2014) HDRip- Год выпуска: 2014
Производство: США, Франция
Жанр: Триллер, криминал, боевик
Режиссер: Джеймс ДеМонако
Продюсер: Майкл Бэй, Джейсон Блум, Эндрю Форм
Актеры: Фрэнк Грилло, Кармен Эджого, Зак Гилфорд, Киле Санчес, Майкл К. Уильямс, Зои Борд, Жустина Мачадо, Джон Бизли, Джек Конли, Ноэль Гульеми
Описание фильма:
Добро пожаловать в идеальный мир будущего, мир без преступности и войн. И только один раз в году роскошная спокойная жизнь сменяется анархией. Этой ночью дозволено все: во тьме улиц одни жаждут мести, другие ищут развлечений, остальные пытаются дожить до рассвета...
Перевод: Дублированный (iTunes)
Субтитры: Отсутствуют

Дата мировой премьеры: 17 июля 2014
Дата российской премьеры: 31 июля 2014
Релиз на DVD: 13 ноября 2014
Релиз на Blu-Ray: 13 ноября 2014
Продолжительность: 01:43:34
Качество видео: HDRip
Видеокодек: XviD
Битрейт видео: ~1977 Кбит/с
Размер кадра: 720x304
Аудио:
1. AC3, 6 ch, 384 Кбит/с - русский
2. AC3, 6 ch, 448 Кбит/с - английский

MediaInfo:

Общее
Полное имя : C:\NNM\Судная ночь 2\Sudnaya nochj 2 2014 HDRip 2000.avi
Формат : AVI
Формат/Информация : Audio Video Interleave
Профиль формата : OpenDML
Размер файла : 2,05 Гбайт
Продолжительность : 1 ч. 43 м.
Общий поток : 2827 Кбит/сек
Программа кодирования : VirtualDubMod 1.5.10.2 (build 2540/release)
Библиотека кодирования : VirtualDubMod build 2540/release
Видео
Идентификатор : 0
Формат : MPEG-4 Visual
Профиль формата : Advanced Simple@L5
Параметр BVOP формата : 2
Параметр QPel формата : Нет
Параметр GMC формата : Без точки перехода
Параметр матрицы формата : Default (MPEG)
Идентификатор кодека : XVID
Идентификатор кодека/Подсказка : XviD
Продолжительность : 1 ч. 43 м.
Битрейт : 1977 Кбит/сек
Ширина : 720 пикселей
Высота : 304 пикселя
Соотношение сторон : 2,35:1
Частота кадров : 23,976 кадра/сек
Цветовое пространство : YUV
Субдискретизация насыщенности : 4:2:0
Битовая глубина : 8 бит
Тип развёртки : Прогрессивная
Метод сжатия : С потерями
Бит/(Пиксели*Кадры) : 0.377
Размер потока : 1,43 Гбайт (70%)
Библиотека кодирования : XviD 1.2.1 (UTC 2008-12-04)
Аудио #1
Идентификатор : 1
Формат : AC-3
Формат/Информация : Audio Coding 3
Расширение режима : CM (complete main)
Идентификатор кодека : 2000
Продолжительность : 1 ч. 43 м.
Вид битрейта : Постоянный
Битрейт : 384 Кбит/сек
Каналы : 6 каналов
Расположение каналов : Front: L C R, Side: L R, LFE
Частота : 48,0 КГц
Битовая глубина : 16 бит
Метод сжатия : С потерями
Размер потока : 284 Мбайт (14%)
Выравнивание : Разделение по промежуткам
Продолжительность промежутка : 42 мс. (1,00 видеокадр)
Время предзагрузки промежутка : 500 мс.
Аудио #2
Идентификатор : 2
Формат : AC-3
Формат/Информация : Audio Coding 3
Расширение режима : CM (complete main)
Идентификатор кодека : 2000
Продолжительность : 1 ч. 43 м.
Вид битрейта : Постоянный
Битрейт : 448 Кбит/сек
Каналы : 6 каналов
Расположение каналов : Front: L C R, Side: L R, LFE
Частота : 48,0 КГц
Битовая глубина : 16 бит
Метод сжатия : С потерями
Размер потока : 332 Мбайт (16%)
Выравнивание : Разделение по промежуткам
Продолжительность промежутка : 42 мс. (1,00 видеокадр)
Время предзагрузки промежутка : 500 мс.
Скриншоты: Время раздачи: Круглосуточно до 10 скачавших
[Профиль] [ЛС]
Показать сообщения:    

Текущее время: Сегодня 15:53

Часовой пояс: GMT



Вы не можете начинать темы
Вы не можете отвечать на сообщения
Вы не можете редактировать свои сообщения
Вы не можете удалять свои сообщения
Вы не можете голосовать в опросах
Вы не можете прикреплять файлы к сообщениям
Вы не можете скачивать файлы