Субурра / Suburra (2015) WEBRip 720p | L2

 
Автор Сообщение

достали все ®

Пол:

Стаж: 1 год 8 месяцев

Сообщений: 6545



Награды: 12 (Подробнее)

Top Releaser 2 (Количество: 1) Mega Releaser 1 (Количество: 1) Mega Seeder 1 (Количество: 1)
Торрент-статистика

Создавать темы 17-Ноя-2015 05:19

[Цитировать]

Информация о фильме
Название: Субурра
Оригинальное название: Suburra
Год выхода: 2015
Жанр: криминал
Режиссер: Стефано Соллима
В ролях: Пьерфранческо Фавино, Жан-Юг Англад, Элио Джермано, Клаудио Амендола, Лидия Витале, Грета Скарано, Джулия Гориетти, Антонелло Фассари, Алессандро Борги, Франческо Сечи
О фильме: Субура - известный в античности, как опасный, шумный, сырой и грязный, с множеством торговцев и проституток, район Древнего Рима. И спустя несколько тысячелетий среди великолепного городского пейзажа Рима разыгрываются отвратительные сцены из спектакля под названием жизнь. Гангстер по прозвищу Самурай хочет превратить пригород Рима в новый Лас-Вегас. Все местные криминальные авторитеты согласились работать для достижения общей цели. Но этот мир продлится недолго...

Выпущено: Италия, Франция / Cattleya, La Chauve Souris, Ministero per i Beni e le Attività Culturali, Rai Cinema
Продолжительность: 02:14:49
Озвучивание: Любительское (двухголосое) [den904 & DeadSno], перевод [Professor]
Файл
Формат: MKV
Качество: WEBRip 720p
Видео: MPEG-4 AVC, 4128 kb/s, 1280x534
Аудио: Russian: AC3, 448 kb/s (6 ch) / Italian: AC3, 640 kb/s (6 ch)
Субтитры: Italian

MI

Format : Matroska
Format version : Version 2
File size : 4.91 GiB
Duration : 2h 14mn
Overall bit rate : 5 217 Kbps
Encoded date : UTC 2015-11-17 00:02:42
Writing application : mkvmerge v7.8.0 ('River Man') 32bit built on Apr 3 2015 12:11:22
Writing library : libebml v1.3.1 + libmatroska v1.4.2
Video
ID : 1
Format : AVC
Format/Info : Advanced Video Codec
Format profile : High@L4.1
Format settings, CABAC : Yes
Format settings, ReFrames : 4 frames
Codec ID : V_MPEG4/ISO/AVC
Duration : 2h 14mn
Bit rate : 4 128 Kbps
Width : 1 280 pixels
Height : 534 pixels
Display aspect ratio : 2.40:1
Frame rate mode : Constant
Frame rate : 24.000 fps
Color space : YUV
Chroma subsampling : 4:2:0
Bit depth : 8 bits
Scan type : Progressive
Bits/(Pixel*Frame) : 0.252
Stream size : 3.79 GiB (77%)
Writing library : x264 core 146 r2538 121396c
Encoding settings : cabac=1 / ref=3 / deblock=1:0:0 / analyse=0x3:0x113 / me=umh / subme=8 / psy=1 / psy_rd=1.00:0.00 / mixed_ref=1 / me_range=16 / chroma_me=1 / trellis=1 / 8x8dct=1 / cqm=0 / deadzone=21,11 / fast_pskip=1 / chroma_qp_offset=-2 / threads=18 / lookahead_threads=3 / sliced_threads=0 / nr=0 / decimate=1 / interlaced=0 / bluray_compat=0 / constrained_intra=0 / bframes=3 / b_pyramid=2 / b_adapt=2 / b_bias=0 / direct=3 / weightb=1 / open_gop=0 / weightp=2 / keyint=240 / keyint_min=24 / scenecut=40 / intra_refresh=0 / rc_lookahead=50 / rc=2pass / mbtree=1 / bitrate=4128 / ratetol=1.0 / qcomp=0.60 / qpmin=0 / qpmax=69 / qpstep=4 / cplxblur=20.0 / qblur=0.5 / ip_ratio=1.40 / aq=1:1.00
Language : Italian
Default : Yes
Forced : No
Color range : Limited
Matrix coefficients : BT.709
Audio #1
ID : 2
Format : AC-3
Format/Info : Audio Coding 3
Mode extension : CM (complete main)
Format settings, Endianness : Big
Codec ID : A_AC3
Duration : 2h 14mn
Bit rate mode : Constant
Bit rate : 448 Kbps
Channel(s) : 6 channels
Channel positions : Front: L C R, Side: L R, LFE
Sampling rate : 48.0 KHz
Bit depth : 16 bits
Compression mode : Lossy
Stream size : 432 MiB (9%)
Language : Russian
Default : Yes
Forced : No
Audio #2
ID : 3
Format : AC-3
Format/Info : Audio Coding 3
Mode extension : CM (complete main)
Format settings, Endianness : Big
Codec ID : A_AC3
Duration : 2h 14mn
Bit rate mode : Constant
Bit rate : 640 Kbps
Channel(s) : 6 channels
Channel positions : Front: L C R, Side: L R, LFE
Sampling rate : 48.0 KHz
Bit depth : 16 bits
Compression mode : Lossy
Stream size : 617 MiB (12%)
Language : Italian
Default : No
Forced : No
Text
ID : 4
Format : UTF-8
Codec ID : S_TEXT/UTF8
Codec ID/Info : UTF-8 Plain Text
Language : Italian
Default : No
Forced : No
Menu
00:00:00.000 : it:Capitolo 01
00:05:17.400 : it:Capitolo 02
00:13:31.268 : it:Capitolo 03
00:21:10.769 : it:Capitolo 04
00:26:32.340 : it:Capitolo 05
00:37:42.802 : it:Capitolo 06
00:45:23.554 : it:Capitolo 07
00:49:30.258 : it:Capitolo 08
00:56:53.868 : it:Capitolo 09
01:02:40.548 : it:Capitolo 10
01:09:43.053 : it:Capitolo 11
01:15:19.640 : it:Capitolo 12
01:23:06.356 : it:Capitolo 13
01:28:54.579 : it:Capitolo 14
01:35:56.834 : it:Capitolo 15
01:38:35.951 : it:Capitolo 16
01:43:12.519 : it:Capitolo 17
01:49:42.701 : it:Capitolo 18
01:57:19.574 : it:Capitolo 19
02:07:00.654 : it:Capitolo 20

Скриншоты




[Профиль] [ЛС]
Показать сообщения:    

Текущее время: Сегодня 02:46

Часовой пояс: GMT



Вы не можете начинать темы
Вы не можете отвечать на сообщения
Вы не можете редактировать свои сообщения
Вы не можете удалять свои сообщения
Вы не можете голосовать в опросах
Вы не можете прикреплять файлы к сообщениям
Вы не можете скачивать файлы