Субура / Suburra (2015) BDRip 1080p от HDClub | A

 
Автор Сообщение

Russian Mafia ®

Пол:

Стаж: 1 год 8 месяцев

Сообщений: 4257



Награды: 10 (Подробнее)

Top Releaser 4 (Количество: 1) Top Releaser 3 (Количество: 1) Mega Seeder 5 (Количество: 1)
Торрент-статистика

Создавать темы 06-Май-2016 15:22

[Цитировать]

Производство: Италия, Франция / Canal+ [fr], Cattleya, CinГ© +
Жанр: триллер, драма, криминал
Режиссер: Стефано Соллима
Продюсер: Марко Кименц, Джина Гардини, Джованни Стабилини
Актеры: Пьерфранческо Фавино, Грета Скарано, Жан-Юг Англад, Элио Джермано, Алессандро Борги, Джулия Гориетти, Лидия Витале, Клаудио Амендола, Юлия Коломиец, Адамо Дионизи
Описание:
Субура — известный в античности, как опасный, шумный, сырой и грязный, с множеством торговцев и проституток, район Древнего Рима. И спустя несколько тысячелетий среди великолепного городского пейзажа Рима разыгрываются отвратительные сцены из спектакля под названием жизнь. Гангстер по прозвищу Самурай хочет превратить пригород Рима в новый Лас-Вегас. Все местные криминальные авторитеты согласились работать для достижения общей цели. Но этот мир продлится недолго…

Дата мировой премьеры: 14 октября 2015
Продолжительность: 02:15:07
Качество: BDRip 1080p
Перевод: Авторский (одноголосый, закадровый) (А.Матвеев)
Вид субтитров: Вшитые, отключаемые
Язык субтитров: Русский
Видео: AVC/H.264, 1920x816, (2.35:1), 12.7 Mbps, 24.000 fps
Аудио: DTS, 6 ch, 1509 kbps - Русский, А.Матвеев (без цензуры)
Аудио: DTS, 6 ch, 1509 kbps - Русский, А.Матвеев (с цензурой)
Аудио: DTS, 6 ch, 1 344 Kbps - Итальянский

MediaInfo:

General
Unique ID : 251810674722961662103685341235647735250 (0xBD70F8CCE67AA14BB2960B0F40B1E5D2)
Complete name : Suburra.2015.1080p.BluRay.2xRus.Ita.HDCLUB.mkv
Format : Matroska
Format version : Version 1
File size : 16.4 GiB
Duration : 2h 15mn
Overall bit rate : 17.4 Mbps
Movie name : Suburra (2015) - Release for HDCLUB by Lostik
Encoded date : UTC 2016-04-23 07:03:19
Writing application : mkvmerge v2.1.0 ('Another Place To Fall') built on Aug 19 2007 13:40:07
Writing library : libebml v0.7.7 + libmatroska v0.8.1
DURATION : 02:15:06.891000000
NUMBER_OF_FRAMES : 760021
NUMBER_OF_BYTES : 1361957632
_STATISTICS_WRITING_APP : mkvmerge v7.2.0 ('On Every Street') 32bit built on Sep 13 2014 15:42:11
_STATISTICS_WRITING_DATE_UTC : 2016-02-08 11:05:27
_STATISTICS_TAGS : BPS DURATION NUMBER_OF_FRAMES NUMBER_OF_BYTES
Video
ID : 1
Format : AVC
Format/Info : Advanced Video Codec
Format profile : High@L4.1
Format settings, CABAC : Yes
Format settings, ReFrames : 5 frames
Codec ID : V_MPEG4/ISO/AVC
Bit rate : 12.7 Mbps
Width : 1 920 pixels
Height : 816 pixels
Display aspect ratio : 2.35:1
Frame rate mode : Variable
Original frame rate : 24.000 fps
Color space : YUV
Chroma subsampling : 4:2:0
Bit depth : 8 bits
Scan type : Progressive
Title : Release for HDCLUB
Writing library : x264 core 142 r2431+42 c69a006 tMod [8-bit@all X86_64]
Encoding settings : cabac=1 / ref=5 / deblock=1:-3:-3 / analyse=0x3:0x133 / me=umh / subme=11 / psy=1 / fade_compensate=0.00 / psy_rd=0.90:0.00 / mixed_ref=1 / me_range=32 / chroma_me=1 / trellis=2 / 8x8dct=1 / cqm=0 / deadzone=21,11 / fast_pskip=0 / chroma_qp_offset=-2 / threads=12 / lookahead_threads=2 / sliced_threads=0 / nr=0 / decimate=0 / interlaced=0 / bluray_compat=0 / constrained_intra=0 / fgo=0 / bframes=8 / b_pyramid=2 / b_adapt=2 / b_bias=0 / direct=3 / weightb=1 / open_gop=0 / weightp=2 / keyint=240 / keyint_min=24 / scenecut=40 / intra_refresh=0 / rc_lookahead=60 / rc=crf / mbtree=0 / crf=16.5000 / qcomp=0.60 / qpmin=0:0:0 / qpmax=69:69:69 / qpstep=4 / vbv_maxrate=40000 / vbv_bufsize=30000 / crf_max=0.0 / nal_hrd=none / filler=0 / ip_ratio=1.40 / pb_ratio=1.30 / aq=1:0.90 / aq-sensitivity=10.00 / aq-factor=1.00:1.00:1.00 / aq2=0 / aq3=0
Language : Italian
Default : Yes
Forced : No
Audio #1
ID : 2
Format : DTS
Format/Info : Digital Theater Systems
Mode : 16
Format settings, Endianness : Big
Codec ID : A_DTS
Duration : 2h 15mn
Bit rate mode : Constant
Bit rate : 1 509 Kbps
Channel(s) : 6 channels
Channel positions : Front: L C R, Side: L R, LFE
Sampling rate : 48.0 KHz
Bit depth : 16 bits
Compression mode : Lossy
Stream size : 1.42 GiB (9%)
Title : DTS 5.1 @ 1536 kbps - А.Матвеев
Language : Russian
Default : No
Forced : No
Audio #2
ID : 3
Format : DTS
Format/Info : Digital Theater Systems
Mode : 16
Format settings, Endianness : Big
Codec ID : A_DTS
Duration : 2h 15mn
Bit rate mode : Constant
Bit rate : 1 509 Kbps
Channel(s) : 6 channels
Channel positions : Front: L C R, Side: L R, LFE
Sampling rate : 48.0 KHz
Bit depth : 16 bits
Compression mode : Lossy
Stream size : 1.42 GiB (9%)
Title : DTS 5.1 @ 1536 kbps - А.Матвеев (без цензуры)
Language : Russian
Default : No
Forced : No
Audio #3
ID : 4
Format : DTS
Format/Info : Digital Theater Systems
Mode : 16
Format settings, Endianness : Big
Codec ID : A_DTS
Duration : 2h 15mn
Bit rate mode : Constant
Bit rate : 1 344 Kbps
Channel(s) : 6 channels
Channel positions : Front: L C R, Side: L R, LFE
Sampling rate : 48.0 KHz
Bit depth : 24 bits
Compression mode : Lossy
Stream size : 1.27 GiB (8%)
Title : DTS 5.1 @ 1536 kbps
Language : Italian
Default : Yes
Forced : No
Text #1
ID : 5
Format : UTF-8
Codec ID : S_TEXT/UTF8
Codec ID/Info : UTF-8 Plain Text
Title : Censored
Language : Russian
Default : Yes
Forced : No
Text #2
ID : 6
Format : UTF-8
Codec ID : S_TEXT/UTF8
Codec ID/Info : UTF-8 Plain Text
Title : Uncensored
Language : Russian
Default : No
Forced : No
Menu
00:00:00.000 : en:00:00:00.000
00:11:42.208 : en:00:11:42.208
00:21:45.750 : en:00:21:45.750
00:33:10.417 : en:00:33:10.417
00:48:19.292 : en:00:48:19.292
01:04:13.667 : en:01:04:13.667
01:09:58.000 : en:01:09:58.000
01:21:51.583 : en:01:21:51.583
01:30:15.625 : en:01:30:15.625
01:40:36.042 : en:01:40:36.042
01:46:11.042 : en:01:46:11.042
01:59:20.375 : en:01:59:20.375
Скриншоты:

Время раздачи: 24/7
[Профиль] [ЛС]
Показать сообщения:    

Текущее время: Сегодня 11:52

Часовой пояс: GMT



Вы не можете начинать темы
Вы не можете отвечать на сообщения
Вы не можете редактировать свои сообщения
Вы не можете удалять свои сообщения
Вы не можете голосовать в опросах
Вы не можете прикреплять файлы к сообщениям
Вы не можете скачивать файлы