Стэн / Stan (Джон Сен / Jon Sen) [2006, Великобритания, телеспектакль, DVDRip] AVO (Stalk) + Original Eng

 
Автор Сообщение

painkiller ®

Стаж: 2 года 3 месяца

Сообщений: 582



Награды: Нет

Торрент-статистика

Создавать темы 15-Авг-2014 01:07

[Цитировать]

Стэн / Stan
Страна: Великобритания
Жанр: телеспектакль
Год выпуска: 2006
Продолжительность: 00:58:57
Перевод: Авторский одноголосый закадровый Stalk
Cубтитры: нет
Оригинальная аудиодорожка: английский
Режиссер: Джон Сен / Jon Sen
В главных ролях: : Стэн Лорел - Джим Нортон, в молодости - Ник Хауден
Оливер Харди - Тревор Купер, в молодости - Майк Гуденаф.

В ролях: : Дирбла Моллой, Лорелей Кинг и др.
Описание: Это пьеса о последней встречи Стэна и Олли. Август 1957 года. Стэн не хочет верить в то, что Олли сильно болен. Он идет к нему. Но Харди очень сильно болен. Он почти не двигается и не разговаривает. Только смотрит. И слушает. И Стэн вспоминает, как они начинали. Какие трудности были. Какие были успехи. Он разговаривает с Олли, который уже не может ему отвечать. Даже предлагает ему сюжет нового фильма "Лорел и Харди в космосе"!
Доп. информация:
Американские актеры Стэн Лорел и Оливер Харди были одним из самых известных комедийных дуэтов в кино. Они стали известными в первой половине двадцатого века, снимаясь в фильмах, а также появляясь на сценах по всей Америке и Европе. Подробнее о них написано в посвященной им теме, вот тут http://torrentfilm.net/forum/viewtopic.php?t=4077140
Релиз
Этот телеспектакль впервые переведен на русский. Рип найден в сети.
Перевод и озвучивание - Stalk, спасибо ему огромное!!!
Субтитров нет никаких, и не спрашивайте.
Оригинальная дорога оставлена.

Сэмпл: http://multi-up.com/958732
Качество видео: DVDRip
Формат видео: AVI
Видео: 720x400 (1.80:1), 25 fps, DivX Codec 5.2.1 alpha ~1142 kbps avg, 0.16 bit/pixel
Аудио: 48 kHz, MPEG Layer 3, 2 ch, ~128.00 kbps avg - Озвучивание киноклуба "Феникс"
Аудио 2: 48 kHz, MPEG Layer 3, 2 ch, ~128.00 kbps avg - Английский

MediaInfo

General
Complete name : D:\Раздачи\Stan.By.Neil.Brand.2006.Rus.Eng.avi
Format : AVI
Format/Info : Audio Video Interleave
File size : 596 MiB
Duration : 58mn 57s
Overall bit rate : 1 414 Kbps
Writing application : VirtualDubMod 1.5.10.2 (build 2540/release)
Writing library : VirtualDubMod build 2540/release
Video
ID : 0
Format : MPEG-4 Visual
Format settings, BVOP : 1
Format settings, QPel : No
Format settings, GMC : No warppoints
Format settings, Matrix : Default (H.263)
Codec ID : DX50
Codec ID/Hint : DivX 5
Duration : 58mn 57s
Bit rate : 1 144 Kbps
Width : 720 pixels
Height : 400 pixels
Display aspect ratio : 16:9
Frame rate : 25.000 fps
Color space : YUV
Chroma subsampling : 4:2:0
Bit depth : 8 bits
Scan type : Progressive
Compression mode : Lossy
Bits/(Pixel*Frame) : 0.159
Stream size : 482 MiB (81%)
Writing library : DivX 5.2.1 Alpha (UTC 2004-09-08)
Audio #1
ID : 1
Format : MPEG Audio
Format version : Version 1
Format profile : Layer 3
Mode : Joint stereo
Mode extension : MS Stereo
Codec ID : 55
Codec ID/Hint : MP3
Duration : 58mn 57s
Bit rate mode : Constant
Bit rate : 128 Kbps
Channel(s) : 2 channels
Sampling rate : 48.0 KHz
Compression mode : Lossy
Stream size : 54.0 MiB (9%)
Alignment : Aligned on interleaves
Interleave, duration : 40 ms (1.00 video frame)
Interleave, preload duration : 504 ms
Audio #2
ID : 2
Format : MPEG Audio
Format version : Version 1
Format profile : Layer 3
Codec ID : 55
Codec ID/Hint : MP3
Duration : 58mn 57s
Bit rate mode : Constant
Bit rate : 128 Kbps
Channel(s) : 2 channels
Sampling rate : 48.0 KHz
Compression mode : Lossy
Stream size : 54.0 MiB (9%)
Alignment : Split accross interleaves
Interleave, duration : 40 ms (1.00 video frame)
Interleave, preload duration : 500 ms

Скриншоты

[Профиль] [ЛС]

Создавать темы 06-Авг-2015 23:11 (спустя 11 месяцев 22 дня)

Топик был перенесен из форума Фильмы до 2014 года в форум Фильмы до 2012 года
sergej644
 
Показать сообщения:    

Текущее время: Сегодня 02:36

Часовой пояс: GMT



Вы не можете начинать темы
Вы не можете отвечать на сообщения
Вы не можете редактировать свои сообщения
Вы не можете удалять свои сообщения
Вы не можете голосовать в опросах
Вы не можете прикреплять файлы к сообщениям
Вы не можете скачивать файлы